.
Авторизация | Регистрация
Хочешь лучшие торренты? Добавь свой email!
Добавить
» » Враг / Enemy (2013) WEB-DLRip-AVC | L1 скачать через торрент бесплатно




    Враг / Enemy (2013) WEB-DLRip-AVC | L1 скачать через торрент бесплатно

    Опубликовал: Админ | Дата: 27-02-2015, 11:10 | Просмотров: 266



    Детально о кино
    Русское название: Враг
    Русское название в мировом прокате: Enemy
    Создали в: 2013
    Категория жанра: триллер, детектив
    Главный режиссер: Дени Вильнёв
    Актеры: Джейк Джилленхол, Мелани Лоран, Сара Гадон, Изабелла Росселлини, Джошуа Пиис, Тим Пост, Кедар Браун, Дэррил Динн, Миша Хайстэд, Меган Манн

    Сюжет фильма: Опасайся встречи с самим собой...
    Чтобы хоть как-то развеять свою депрессию, разведенный учитель истории Тертулиано Максимо Афонсо берет в прокате видеокассету с комедией Упорный охотник подстрелит дичь. Фильм никак не впечатляет Тертулиано, и он ложится спать. Ночью его будят звуки из гостиной — оказывается, он забыл выключить пленку и видеомагнитофон заново проигрывает фильм. И тут Тертулиано обнаруживает, что исполнитель одной из эпизодических ролей выглядит в точности так, как он сам пять лет назад. Герой решает во что бы то ни стало найти своего двойника. Поиски оборачиваются настоящим наваждением, путешествием в самое сердце метафизической тьмы…




    Снималось в: Канада, Испания
    Киностудия: Mecanismo Films, Rhombus Media...
    Время просмотра: 01:30:50
    Перевод текста: Любительское (одноголосое) ХихиДок

    Файл
    Кодек для видео: h.264 (MKV)
    Качество фильма: WEB-DLRip-AVC
    Информация о видео: AVC, 1024 x 428, ~1815 kbps
    Информация о звуке: Русский: AC-3, 2 ch, 192 kbps / Английский: AC-3, 6 ch, 448 kbps
    Субтитры: Английский

    Семпл

    Скриншоты для ознакомления
    MI
    Общее
    Уникальный идентификатор : 168348648403719580577546155723716462494 (0x7EA6C532C2870C1E037BA147C20E879E)
    Полное имя : H:Враг Enemy (2013)Enemy.2013.WEB-DLRip-AVC.mkv
    Формат : Matroska
    Версия формата : Version 2
    Размер файла : 1,59 Гбайт
    Продолжительность : 1 ч. 30 м.
    Режим общего битрейта : Переменный
    Общий поток : 2504 Кбит/сек
    Программа кодирования : Lavf51.12.1
    Библиотека кодирования : Lavf51.12.1

    Видео
    Идентификатор : 1
    Формат : AVC
    Формат/Информация : Advanced Video Codec
    Профиль формата : Baseline@L3.1
    Параметр CABAC формата : Нет
    Параметр ReFrames формата : 1 кадр
    Параметр GOP формата : M=1, N=12
    Идентификатор кодека : V_MPEG4/ISO/AVC
    Продолжительность : 1 ч. 30 м.
    Вид битрейта : Переменный
    Битрейт : 1815 Кбит/сек
    Максимальный битрейт : 2790 Кбит/сек
    Ширина : 1024 пикселя
    Высота : 428 пикселей
    Соотношение сторон : 2,40:1
    Соотношение сторон в оригинале : 2,40:1
    Режим частоты кадров : Постоянный
    Частота кадров : 23,976 кадра/сек
    Частота кадров в оригинале : 24,000 кадра/сек
    Цветовое пространство : YUV
    Субдискретизация насыщенности : 4:2:0
    Битовая глубина : 8 бит
    Тип развёртки : Прогрессивная
    Бит/(Пиксели*Кадры) : 0.173
    Размер потока : 1,15 Гбайт (72%)
    Язык : English
    Default : Да
    Forced : Нет

    Аудио #1
    Идентификатор : 2
    Формат : AC-3
    Формат/Информация : Audio Coding 3
    Расширение режима : CM (complete main)
    Параметр Endianness формата : Big
    Идентификатор кодека : A_AC3
    Продолжительность : 1 ч. 30 м.
    Вид битрейта : Постоянный
    Битрейт : 192 Кбит/сек
    Каналы : 2 канала
    Расположение каналов : Front: L R
    Частота : 48,0 КГц
    Битовая глубина : 16 бит
    Метод сжатия : С потерями
    Размер потока : 125 Мбайт (8%)
    Язык : Russian
    Default : Да
    Forced : Нет

    Аудио #2
    Идентификатор : 4
    Формат : AC-3
    Формат/Информация : Audio Coding 3
    Расширение режима : CM (complete main)
    Параметр Endianness формата : Big
    Идентификатор кодека : A_AC3
    Продолжительность : 1 ч. 30 м.
    Вид битрейта : Постоянный
    Битрейт : 448 Кбит/сек
    Каналы : 6 каналов
    Расположение каналов : Front: L C R, Side: L R, LFE
    Частота : 48,0 КГц
    Битовая глубина : 16 бит
    Метод сжатия : С потерями
    Размер потока : 291 Мбайт (18%)
    Язык : English
    Default : Да
    Forced : Нет

    Текст
    Идентификатор : 3
    Формат : UTF-8
    Идентификатор кодека : S_TEXT/UTF8
    Идентификатор кодека/Информация : UTF-8 Plain Text
    Язык : English
    Default : Да
    Forced : Нет

    Размер скачиваемого торрента: 1.59 GB (1706330153 Bytes)

    Враг / Enemy (2013) WEB-DLRip-AVC | L1 скачать через торрент бесплатно
    загрузка...
    Рейтинг →
     (голосов: 1, оценка 5/5, голосовать можно 1 раз )

    Другие торренты по теме:

  • Под нами враг / Враг внизу / Цель под нами / The Enemy Below (1957) DVDRip от KinoRay Sheikn | P2, A
  • Близкий враг / Дорогой враг / Dual Crisis / Dear Enemy / Qin Mi Di Ren (2011) BDRip-AVC от MediaClub | L2 скачать через торрент бесплатно
  • Враг государства / Enemy of the State (1998) DVDRip | Расширенная версия / Unrated
  • Враг мой / Enemy Mine (1985) DVD-9
  • Скрытый враг / The Hidden (1987) WEB-DLRip 720p | Р2, А
  • Вчерашний враг / Yesterdays Enemy (1959) DVDRip-AVC от Oneinchnales | L1
  • Элитный отряд: Враг среди нас / Tropa de Elite 2 - O Inimigo Agora Outro (2010) BDRemux 1080p от HDTracker
  • Враг Государства №1: Легенда / Lennemi public n°1 (2008) BDRip-AVC | iPad


    • Комментарии (0):

      Информация

      Информация

        Посетители, находящиеся в группе Гости, не могут оставлять комментарии в данной новости.

        ↓ Меню



        ↓ Опрос

        А Вы добавили сайт в закладки?
        Да
        Не


        Top 10 за месяц (Фильмы)