.
Авторизация | Регистрация
Хочешь лучшие торренты? Добавь свой email!
Добавить
» » Этот неловкий момент / That Awkward Moment (2014) DVDRip от New-Team | лицензия скачать через торрент бесплатно




    Этот неловкий момент / That Awkward Moment (2014) DVDRip от New-Team | лицензия скачать через торрент бесплатно

    Опубликовал: Админ | Дата: 27-02-2015, 11:10 | Просмотров: 206

    Когда ты понимаешь: добиться многого - значит мыслить по-крупному



    Снималось в: США / Aversano Films, Ninjas Runnin; Wild Productions, Treehouse Pictures, Virgin Produced, What If It Barks Films

    Категория жанра: мелодрама, комедия
    Создали в: 2014
    Время просмотра: 01:30:37
    Перевод текста: Профессиональный (дублированный)
    Субтитры подготовлены: нет
    Оригинальная аудиодорожка: нет

    Главный режиссер: Том Гормикэн / Tom Gormican

    Актеры: Зак Эфрон, Майлз Теллер, Майкл Б. Джордан, Имоджен Путс, Маккензи Дэвис, Джессика Лукас, Эддисон Тимлин, Джош Пэйс, Эвелина Обоза, Карен Людвиг...

    Роли дублировали: Сергей Смирнов, Андрей Бархударов, Татьяна Шитова, Евгения Ваган

    Сюжет: Джейсон, Дэниел и Майкл — типичные обитатели Манхеттена, красивые остроумные парни. После того, как одного из них бросает подружка, они клянутся больше никогда не заводить с девушками серьезных отношений. Но очень скоро, после кучи неловких моментов, они встречают настоящую любовь. И как теперь быть с дружеской сделкой?



    Качество фильма: DVDRip / DVD5 R5
    Тип видео: AVI

    Информация о видео: 720x304 (2.35:1), 25.000 fps, XviD ~ 1012 kbps avg, 0.185 bit/pixel
    Информация о звуке: 48 kHz, Dolby MP3, 2 ch, 128 kbps, русский

    Раздача от:
    MediaInfo

    Общее
    Полное имя : Etot.nelovkiy.moment.2014.D.DVDRip_New-Team_by_avproh.avi
    Формат : AVI
    Формат/Информация : Audio Video Interleave
    Размер файла : 745 Мбайт
    Продолжительность : 1 ч. 30 м.
    Общий поток : 1149 Кбит/сек
    Программа кодирования : VirtualDubMod 1.5.10.3 | www.virtualdub-fr.org || (build 2550/release)
    Библиотека кодирования : VirtualDubMod build 2550/release

    Видео
    Идентификатор : 0
    Формат : MPEG-4 Visual
    Профиль формата : Advanced Simple@L5
    Параметр BVOP формата : 1
    Параметр QPel формата : Нет
    Параметр GMC формата : Без точки перехода
    Параметр матрицы формата : Выборочная
    Идентификатор кодека : XVID
    Идентификатор кодека/Подсказка : XviD
    Продолжительность : 1 ч. 30 м.
    Битрейт : 1012 Кбит/сек
    Ширина : 720 пикселей
    Высота : 304 пикселя
    Соотношение сторон : 2,35:1
    Частота кадров : 25,000 кадров/сек
    Цветовое пространство : YUV
    Субдискретизация насыщенности : 4:2:0
    Битовая глубина : 8 бит
    Тип развёртки : Прогрессивная
    Метод сжатия : С потерями
    Бит/(Пиксели*Кадры) : 0.185
    Размер потока : 656 Мбайт (88%)
    Библиотека кодирования : XviD 73

    Аудио
    Идентификатор : 1
    Формат : MPEG Audio
    Версия формата : Version 1
    Профиль формата : Layer 3
    Идентификатор кодека : 55
    Идентификатор кодека/Подсказка : MP3
    Продолжительность : 1 ч. 30 м.
    Вид битрейта : Постоянный
    Битрейт : 128 Кбит/сек
    Каналы : 2 канала
    Частота : 48,0 КГц
    Метод сжатия : С потерями
    Размер потока : 83,0 Мбайт (11%)
    Выравнивание : Соединение по промежуткам
    Продолжительность промежутка : 40 мс. (1,00 видеокадр)
    Время предзагрузки промежутка : 504 мс.

    Скриншоты для ознакомления:



    Сравнение:

    http://rutor.org/torrent/349220/

    http://screenshotcomparison.com/comparison/71215

    Залил: avproh
    Размер скачиваемого торрента: 744.99 MB (781180928 Bytes)

    Этот неловкий момент / That Awkward Moment (2014) DVDRip от New-Team | лицензия скачать через торрент бесплатно
    загрузка...
    Рейтинг →
     (голосов: 1, оценка 5/5, голосовать можно 1 раз )

    Другие торренты по теме:

  • Этот неловкий момент (2014) скачать через торрент бесплатно
  • Этот неловкий момент / That Awkward Moment (2014) TS
  • Этот неловкий момент / That Awkward Moment (2014) DVDRip | Лицензия
  • Этот неловкий момент / That Awkward Moment (2014) DVD5 R5 от New-Team | лицензия скачать через торрент бесплатно
  • Этот неловкий момент / That Awkward Moment (2014) DVDRip-AVC от New-Team | лицензия скачать через торрент бесплатно
  • Этот неловкий момент / That Awkward Moment (2013) DVDRip от Scarabey | Лицензия скачать через торрент бесплатно
  • Этот неловкий момент / That Awkward Moment (2014) WEB-DLRip скачать через торрент бесплатно
  • Этот неловкий момент / That Awkward Moment (2014) Blu-ray 1080p от NovaLan


    • Комментарии (0):

      Информация

      Информация

        Посетители, находящиеся в группе Гости, не могут оставлять комментарии в данной новости.

        ↓ Меню



        ↓ Опрос

        А Вы добавили сайт в закладки?
        Да
        Не


        Top 10 за месяц (Фильмы)