.
Авторизация | Регистрация
Хочешь лучшие торренты? Добавь свой email!
Добавить
» » Ложь прошлого / Past Lies (2008) TVRip скачать через торрент бесплатно




    Ложь прошлого / Past Lies (2008) TVRip скачать через торрент бесплатно

    Опубликовал: Админ | Дата: 27-02-2015, 11:10 | Просмотров: 212



    Детально о киноЛожь прошлого
    Русское название в мировом прокате: Past Lies
    Категория жанра: Драма
    Создали в: 2008

    Главный режиссер: Терри Ингрэм

    Актеры: Эд Эндерс, Джулия Андерсон, Пол Биттанте, Дженнифер Коппинг, Агам Дарши, Николь Эггерт, Джейсон Гриффит, Чела Хорсдэл, Луис Хавьер, Колин Лоуренс

    Сюжет фильма:У Ким Фёрст есть всё: крутой джип, карьера, любящие муж и сын. Но когда её бывший муж Лоуренс Геллер выходит из тюрьмы, Ким приходится взглянуть в лицо прошлому, которое она так хотела забыть. Лоуренс начинает преследовать и шантажом пытается заставить Ким помочь ему украсть четвёртый по величине бриллиант в мире. Камень выставлен в музее, где работает муж Ким.



    Снималось в: Канада
    Киностудия: Insight Film Studios, TF1 International
    Время просмотра: 01:25:23
    Перевод текста: Профессиональный двухголосый

    Файл
    Тип релиза: AVI
    Информация о видео: DivX, 2155 Кбит/с, 704х384
    Информация о звуке: АС3, 2 ch, 192 Кбит/с

    Семпл

    MediaInfo
    Общее
    Полное имя : D:залитьЛожь прошлого.avi
    Формат : AVI
    Формат/Информация : Audio Video Interleave
    Размер файла : 1,41 Гбайт
    Продолжительность : 1 ч. 25 м.
    Общий поток : 2357 Кбит/сек
    Программа кодирования : VirtualDubMod 1.5.10.2 (build 2540/release)
    Библиотека кодирования : VirtualDubMod build 2540/release

    Видео
    Идентификатор : 0
    Формат : MPEG-4 Visual
    Параметр BVOP формата : 1
    Параметр QPel формата : Нет
    Параметр GMC формата : Без точки перехода
    Параметр матрицы формата : Default (H.263)
    Режим смешивания : Сжатый битовый поток
    Идентификатор кодека : DX50
    Идентификатор кодека/Подсказка : DivX 5
    Продолжительность : 1 ч. 25 м.
    Битрейт : 2155 Кбит/сек
    Ширина : 704 пикселя
    Высота : 384 пикселя
    Соотношение сторон : 1,85:1
    Частота кадров : 25,000 кадров/сек
    Цветовое пространство : YUV
    Субдискретизация насыщенности : 4:2:0
    Битовая глубина : 8 бит
    Тип развёртки : Прогрессивная
    Метод сжатия : С потерями
    Бит/(Пиксели*Кадры) : 0.319
    Размер потока : 1,29 Гбайт (91%)
    Библиотека кодирования : DivX 6.8.5 (UTC 2009-08-20)

    Аудио
    Идентификатор : 1
    Формат : AC-3
    Формат/Информация : Audio Coding 3
    Расширение режима : CM (complete main)
    Параметр Endianness формата : Big
    Идентификатор кодека : 2000
    Продолжительность : 1 ч. 25 м.
    Вид битрейта : Постоянный
    Битрейт : 192 Кбит/сек
    Каналы : 2 канала
    Расположение каналов : Front: L R
    Частота : 48,0 КГц
    Битовая глубина : 16 бит
    Метод сжатия : С потерями
    Размер потока : 117 Мбайт (8%)
    Выравнивание : Разделение по промежуткам
    Продолжительность промежутка : 40 мс. (1,00 видеокадр)
    Время предзагрузки промежутка : 500 мс.



    Скриншоты для ознакомления


    Автор рипа:
    Залил: YArl
    Размер скачиваемого торрента: 1.41 GB (1509306368 Bytes)

    Ложь прошлого / Past Lies (2008) TVRip скачать через торрент бесплатно
    загрузка...
    Рейтинг →
     (голосов: 1, оценка 3/5, голосовать можно 1 раз )

    Другие торренты по теме:

  • Игра в ложь / The Lying Game (2012) HDTVRip | DreamRecords
  • Великолепная ложь / The Magnificent Lie (1931) DVDRip от egoleshik | P1
  • Правдивая ложь / True Lies (1994) D-TheaterRip 1080p
  • Что скрывает ложь / What Lies Beneath (2000) WEB-DL 720p | D, A
  • Право голоса. Чиновник и ложь (2013) WEBRip
  • Маленькие секреты / Пустяковая, безобидная ложь / Les petits mouchoirs (2010) BDRip 1080p | A
  • Правдивая ложь / True Lies (1994) HDRip от Scarabey | D
  • Что скрывает ложь / What Lies Beneath (2000) HDRip от Scarabey | D


    • Комментарии (0):

      Информация

      Информация

        Посетители, находящиеся в группе Гости, не могут оставлять комментарии в данной новости.

        ↓ Меню



        ↓ Опрос

        А Вы добавили сайт в закладки?
        Да
        Не


        Top 10 за месяц (Фильмы)