.
Авторизация | Регистрация
Хочешь лучшие торренты? Добавь свой email!
Добавить
» » Рассекая волны / Breaking the Waves (1996) BDRip-AVC | iPad | P скачать через торрент бесплатно




    Рассекая волны / Breaking the Waves (1996) BDRip-AVC | iPad | P скачать через торрент бесплатно

    Опубликовал: Админ | Дата: 27-02-2015, 11:10 | Просмотров: 245



    Рассекая волны / Breaking the Waves (1996) BDRip-AVC | iPad | P

    Русское название: Рассекая волны
    Русское название в мировом прокате: Breaking the Waves
    Создали в: 1996
    Категория жанра: драма, мелодрама
    Главный режиссер: Ларс фон Триер
    Актеры: Эмили Уотсон, Стеллан Скарсгард, Кэтрин Картлидж, Жан-Марк Барр, Эдриан Роулинз, Джонатан Хэкетт, Сандра Воу, Удо Кир, Миккель Гауп, Рёеф Рагас

    Сюжет фильма:
    Бог дает каждому что-то, чтобы он стал лучше. Молодая девушка Бесс из отдаленной общины на северо-западе Шотландии влюбилась в хорошего парня - Яна, работающего на буровой установке в море. Несмотря на противостояние родственников, они женятся. Бесс просит Бога, чтобы Ян всегда был рядом с ней, и Ян возвращается к ней искалеченным после несчастного случая на буровой. Что может сделать молодая женщина, чтобы ее любимый остался жив? На какую жертву может пойти?


    Снималось в: Дания, Швеция, Франция, Нидерланды, Норвегия, Исландия, Испания
    Киностудия: Argus Film Produktie, Arte, Canal+

    Время просмотра: 02:39:22
    Перевод текста: Русский профессиональный многоголосый закадровый

    Файл
    Кодек для видео: H.264
    Качество фильма: BDRip-AVC 576p
    Информация о видео: 1024x436 (2.35:1) at 23.976 fps, AVC at 3800 kbps
    Информация о звуке:
    1: АAС 2.0 108 kbps - Русский профессиональный многоголосый закадровый
    2: АAС 2.0 108 kbps - Английский
    Субтитры: отсутствуют

    MI

    General
    Complete name : C:CREATE264mod0outBreaking.the.Waves.1996.576p.P.m4v
    Format : MPEG-4
    Codec ID : M4V
    File size : 4.51 GiB
    Duration : 2h 39mn
    Overall bit rate mode : Variable
    Overall bit rate : 4 055 Kbps
    Movie name : Рассекая волны
    Performer : Lars von Trier
    Genre : Drama
    ContentType : Short Film
    Deion : Бог дает каждому что-то, чтобы он стал лучше. Молодая девушка Бесс из отдаленной общины на северо-западе Шотландии влюбилась в хорошего парня — Яна, работающего на буровой установке в море. Несмотря на противостояние родственников, они женятся.
    Recorded date : UTC 1996-05-18 08:00:00
    Encoded date : UTC 2014-04-20 18:26:21
    Tagged date : UTC 2014-04-20 18:33:16
    Copyright : Argus Film Produktie, Arte, Canal+
    Cover : Yes
    Comment : Love is a mighty power
    ContentRating : mpaa|R|400|

    Title/Sort : Breaking the Waves
    LongDeion : Бог дает каждому что-то, чтобы он стал лучше. Молодая девушка Бесс из отдаленной общины на северо-западе Шотландии влюбилась в хорошего парня — Яна, работающего на буровой установке в море. Несмотря на противостояние родственников, они женятся. Бесс просит Бога, чтобы Ян всегда был рядом с ней, и Ян возвращается к ней искалеченным после несчастного случая на буровой. Что может сделать молодая женщина, чтобы ее любимый остался жив? На какую жертву может пойти?
    AppleStoreCatalogID : 839352171
    Vendor : Apple:vendor_id:1996-5264

    Video
    ID : 1
    Format : AVC
    Format/Info : Advanced Video Codec
    Format profile : High@L4.1
    Format settings, CABAC : Yes
    Format settings, ReFrames : 11 frames
    Codec ID : avc1
    Codec ID/Info : Advanced Video Coding
    Duration : 2h 39mn
    Bit rate : 3 828 Kbps
    Maximum bit rate : 12.3 Mbps
    Width : 1 024 pixels
    Height : 436 pixels
    Display aspect ratio : 2.35:1
    Frame rate mode : Constant
    Frame rate : 23.976 fps
    Color space : YUV
    Chroma subsampling : 4:2:0
    Bit depth : 8 bits
    Scan type : Progressive
    Bits/(Pixel*Frame) : 0.358
    Stream size : 4.26 GiB (94%)
    Language : English
    Encoded date : UTC 2014-04-20 18:26:21
    Tagged date : UTC 2014-04-20 18:27:33

    Audio #1
    ID : 2
    Format : AAC
    Format/Info : Advanced Audio Codec
    Format profile : LC
    Codec ID : 40
    Duration : 2h 39mn
    Bit rate mode : Variable
    Bit rate : 107 Kbps
    Maximum bit rate : 172 Kbps
    Channel(s) : 2 channels
    Channel positions : Front: L R
    Sampling rate : 48.0 KHz
    Compression mode : Lossy
    Stream size : 122 MiB (3%)
    Title : MVO
    Language : Russian
    Encoded date : UTC 2014-04-20 18:17:14
    Tagged date : UTC 2014-04-20 18:27:33

    Audio #2
    ID : 3
    Format : AAC
    Format/Info : Advanced Audio Codec
    Format profile : LC
    Codec ID : 40
    Duration : 2h 39mn
    Bit rate mode : Variable
    Bit rate : 108 Kbps
    Maximum bit rate : 173 Kbps
    Channel(s) : 2 channels
    Channel positions : Front: L R
    Sampling rate : 48.0 KHz
    Compression mode : Lossy
    Stream size : 123 MiB (3%)
    Title : Original
    Language : English
    Encoded date : UTC 2014-04-20 18:21:34
    Tagged date : UTC 2014-04-20 18:27:33

    iTunes tags


    Sort Name: Breaking the Waves
    XID: Apple:vendor_id:1996-5264
    Content ID: 839352171
    Copyright: Argus Film Produktie, Arte, Canal+
    ScreenWriters: Ларс фон Триер, Питер Асмуссен, Дэвид Пири
    Producers: Аксель Хельгеланд, Петер Ольбек Енсен, Ларс Йонссон
    Director: Ларс фон Триер
    Cast: Эмили Уотсон, Стеллан Скарсгард, Кэтрин Картлидж, Жан-Марк Барр, Эдриан Роулинз, Джонатан Хэкетт, Сандра Воу, Удо Кир, Миккель Гауп, Рёеф Рагас // Emily Watson (Bess McNeill), Stellan Skarsg?rd (Jan Nyman), Katrin Cartlidge (Dodo McNeill), Jean-Marc ...
    Rating: R
    Long Deion: Бог дает каждому что-то, чтобы он стал лучше. Молодая девушка Бесс из отдаленной общины на северо-западе Шотландии влюбилась в хорошего парня — Яна, работающего на буровой установке в море. Несмотря на противостояние родственников, они женятся. Бесс просит Бога, чтобы Ян всегда был рядом с ней, и Ян возвращается к ней искалеченным после несчастного случая на буровой. Что может сделать молодая женщина, чтобы ее любимый остался жив? На какую жертву может пойти?
    Deion: Бог дает каждому что-то, чтобы он стал лучше. Молодая девушка Бесс из отдаленной общины на северо-западе Шотландии влюбилась в хорошего парня — Яна, работающего на буровой установке в море. Несмотря на противостояние родственников, они женятся.
    Release Date: 1996-05-18T08:00:00Z
    Genre: Drama
    Artist: Lars von Trier
    Name: Рассекая волны
    Comments: Love is a mighty power

    x264

    x264 info: frame I:1119 Avg QP:14.91 size: 64635
    x264 info: frame P:52679 Avg QP:16.90 size: 31449
    x264 info: frame B:175450 Avg QP:18.54 size: 16222
    x264 info: consecutive B-frames: 3.1% 3.2% 10.1% 13.6% 16.2% 47.9% 2.7% 1.4% 1.1% 0.2% 0.0% 0.0% 0.2% 0.2%
    x264 info: mb I I16..4: 13.2% 68.7% 18.1%
    x264 info: mb P I16..4: 1.1% 20.5% 4.3% P16..4: 26.4% 34.1% 12.1% 0.0% 0.0% skip: 1.6%
    x264 info: mb B I16..4: 0.0% 3.7% 1.4% B16..8: 37.1% 25.7% 4.4% direct: 8.8% skip:18.9% L0:39.8% L1:41.1% BI:19.1%
    x264 info: 8x8 transform intra:75.7% inter:44.0%
    x264 info: coded y,uvDC,uvAC intra: 90.7% 60.0% 35.4% inter: 45.5% 13.7% 4.8%
    x264 info: i16 v,h,dc,p: 5% 5% 23% 67%
    x264 info: i8 v,h,dc,ddl,ddr,vr,hd,vl,hu: 11% 9% 14% 9% 12% 11% 11% 11% 13%
    x264 info: i4 v,h,dc,ddl,ddr,vr,hd,vl,hu: 55% 4% 7% 5% 7% 6% 6% 5% 5%
    x264 info: i8c dc,h,v,p: 24% 34% 22% 20%
    x264 info: Weighted P-Frames: Y:2.9% UV:1.2%
    x264 info: ref P L0: 52.6% 10.0% 13.6% 6.6% 4.7% 3.6% 2.9% 1.8% 1.5% 1.4% 1.3% 0.1% 0.0%
    x264 info: ref B L0: 81.1% 7.5% 4.0% 2.1% 1.6% 1.2% 1.0% 0.7% 0.6% 0.4%
    x264 info: ref B L1: 94.8% 5.2%
    x264 info: kb/s:3828.02



    full-size screenshots






    Залил: gekka
    Размер скачиваемого торрента: 4.51 GB (4846502848 Bytes)

    Рассекая волны / Breaking the Waves (1996) BDRip-AVC | iPad | P скачать через торрент бесплатно
    загрузка...
    Рейтинг →
     (голосов: 1, оценка 3/5, голосовать можно 1 раз )

    Другие торренты по теме:

  • Рассекая волны / Breaking the Waves (1996) DVDRip-AVC от Temperest
  • Рассекая волны / Breaking the Waves (1996) BDRip 720p | Р
  • Рассекая волны / Breaking the Waves (1996) BDRip 720p от ExKinoRay | Р
  • Рассекая волны / Breaking the Waves (1996) BDRip by msltel | P
  • Рассекая волны / Breaking the Waves (1996) BDRip-AVC от Rulya74 скачать через торрент бесплатно
  • Рассекая волны / Breaking the Waves (1996) BDRip от Koenig | P


    • Комментарии (0):

      Информация

      Информация

        Посетители, находящиеся в группе Гости, не могут оставлять комментарии в данной новости.

        ↓ Меню



        ↓ Опрос

        А Вы добавили сайт в закладки?
        Да
        Не


        Top 10 за месяц (Фильмы)