.
Авторизация | Регистрация
Хочешь лучшие торренты? Добавь свой email!
Добавить
» » У друзей жизнь лучше / Friends With Better Lives (2014) WEB-DL 720p | L, L1 скачать торрент бесплатно




    У друзей жизнь лучше / Friends With Better Lives (2014) WEB-DL 720p | L, L1 скачать торрент бесплатно

    Опубликовал: Админ | Дата: 27-02-2015, 11:10 | Просмотров: 224

    У друзей жизнь лучше / Friends With Better Lives

    Русское название: У друзей жизнь лучше
    Русское название в мировом прокате: Friends With Better Lives
    Создали в: 2014
    Категория жанра: Комедия, ситком


    Главный режиссер: Фред Сэвэдж, Джеймс Берроуз, Тодд Холлэнд, Роб Шиллер

    Актеры: Кевин Коннолли, Бруклин Декер, Маджандра Делфино, Зои Листер Джонс, Джеймс Ван Дер Бик, Беверли Д`Анджело, Джош Касобон


    Сюжет фильма:
    Главные действующие лица комедийного сериала - шестеро друзей, которые уже давно живут взрослой жизнью, но порой ведут себя как дети. Каждый из них по-своему счастлив, но при этом втайне завидует своим друзьям, ведь им кажется, что те удачливее и живется им гораздо легче. Джулия встречает мужчину своей мечты - Лоуэлла. Во время бурного романа у них рождается идея пожениться. Эти события заставляют их друзей присмотреться тщательнее к своей жизни, ведь у каждого из них, по их мнению, не настолько все хорошо, как у влюбленной парочки. Уилл вовсе разводится со своей женой, потому как благоверная изменила ему с его же подчиненным, отчего он становится циником и присоединяется в ряды вечных холостяков. Бобби и Энди вроде как счастливы в браке, но никак не могут принять серьезное решение, так как не хотят брать на себя ответственность. А Кейт успешна в карьере, но так и не нашедшая своей второй половинки.





    Снималось в: США, Liscolade Productions, Kapital Entertainment, 20th Century Fox Television
    Время просмотра: 2 x ~ 00:21:00
    Перевод текста: Любительский многоголосый (Lynx Studio), любительский одноголосый (LevshaFilm)


    Качество фильма: WEB-DL 720p
    Информация о видео: MPEG-4 AVC, ~ 3900 Кбит/с, 1280x720
    Информация о звуке: Русский, английский (AC3, 6 ch, 384 Кбит/с)
    Субтитры: Русские, английские


    Скриншоты для ознакомления



    MediaInfo
    Общее
    Уникальный идентификатор : 197204547126214918003406310965567730364 (0x945C36D8F478DE89B71784C070EEB2BC)
    Полное имя : E:FWBL01FWBL.S01E01.720p.WEB-DL.DD5.1.h264-Bi6f00t.mkv
    Формат : Matroska
    Версия формата : Version 2
    Размер файла : 792 Мбайт
    Продолжительность : 21 м.
    Общий поток : 5127 Кбит/сек
    Дата кодирования : UTC 2014-04-07 14:24:19
    Программа кодирования : mkvmerge v6.8.0 (;Theme for Great Cities;) 32bit built on Mar 2 2014 21:27:07
    Библиотека кодирования : libebml v1.3.0 + libmatroska v1.4.1

    Видео
    Идентификатор : 1
    Формат : AVC
    Формат/Информация : Advanced Video Codec
    Профиль формата : High@L3.1
    Параметр CABAC формата : Нет
    Параметр ReFrames формата : 2 кадра
    Идентификатор кодека : V_MPEG4/ISO/AVC
    Продолжительность : 21 м.
    Битрейт : 3873 Кбит/сек
    Ширина : 1280 пикселей
    Высота : 718 пикселей
    Соотношение сторон : 16:9
    Режим частоты кадров : Постоянный
    Частота кадров : 23,976 кадра/сек
    Цветовое пространство : YUV
    Субдискретизация насыщенности : 4:2:0
    Битовая глубина : 8 бит
    Тип развёртки : Прогрессивная
    Бит/(Пиксели*Кадры) : 0.176
    Размер потока : 598 Мбайт (76%)
    Язык : English
    Default : Да
    Forced : Нет
    Основные цвета : BT.709
    Характеристики трансфера : BT.709
    Коэффициенты матрицы : BT.709

    Аудио #1
    Идентификатор : 2
    Формат : AC-3
    Формат/Информация : Audio Coding 3
    Расширение режима : CM (complete main)
    Параметр Endianness формата : Big
    Идентификатор кодека : A_AC3
    Продолжительность : 21 м.
    Вид битрейта : Постоянный
    Битрейт : 384 Кбит/сек
    Каналы : 6 каналов
    Расположение каналов : Front: L C R, Side: L R, LFE
    Частота : 48,0 КГц
    Битовая глубина : 16 бит
    Метод сжатия : С потерями
    Размер потока : 59,3 Мбайт (7%)
    Заголовок : MVO Lynx Studio
    Язык : Russian
    Default : Да
    Forced : Нет

    Аудио #2
    Идентификатор : 3
    Формат : AC-3
    Формат/Информация : Audio Coding 3
    Расширение режима : CM (complete main)
    Параметр Endianness формата : Big
    Идентификатор кодека : A_AC3
    Продолжительность : 21 м.
    Вид битрейта : Постоянный
    Битрейт : 384 Кбит/сек
    Каналы : 6 каналов
    Расположение каналов : Front: L C R, Side: L R, LFE
    Частота : 48,0 КГц
    Битовая глубина : 16 бит
    Метод сжатия : С потерями
    Размер потока : 59,3 Мбайт (7%)
    Заголовок : VO LevshaFilm
    Язык : Russian
    Default : Нет
    Forced : Нет

    Аудио #3
    Идентификатор : 4
    Формат : AC-3
    Формат/Информация : Audio Coding 3
    Расширение режима : CM (complete main)
    Параметр Endianness формата : Big
    Идентификатор кодека : A_AC3
    Продолжительность : 21 м.
    Вид битрейта : Постоянный
    Битрейт : 384 Кбит/сек
    Каналы : 6 каналов
    Расположение каналов : Front: L C R, Side: L R, LFE
    Частота : 48,0 КГц
    Битовая глубина : 16 бит
    Метод сжатия : С потерями
    Размер потока : 59,3 Мбайт (7%)
    Заголовок : Original
    Язык : English
    Default : Нет
    Forced : Нет

    Текст #1
    Идентификатор : 5
    Формат : UTF-8
    Идентификатор кодека : S_TEXT/UTF8
    Идентификатор кодека/Информация : UTF-8 Plain Text
    Заголовок : Translators; Alliance
    Язык : Russian
    Default : Нет
    Forced : Нет

    Текст #2
    Идентификатор : 6
    Формат : UTF-8
    Идентификатор кодека : S_TEXT/UTF8
    Идентификатор кодека/Информация : UTF-8 Plain Text
    Заголовок : Notabenoid
    Язык : Russian
    Default : Нет
    Forced : Нет

    Текст #3
    Идентификатор : 7
    Формат : UTF-8
    Идентификатор кодека : S_TEXT/UTF8
    Идентификатор кодека/Информация : UTF-8 Plain Text
    Заголовок : Seppuku17 Addic7ed
    Язык : English
    Default : Нет
    Forced : Нет

    Размер скачиваемого торрента: 1.49 GB (1603712655 Bytes)

    У друзей жизнь лучше / Friends With Better Lives (2014) WEB-DL 720p | L, L1 торрент скачать бесплатно
    загрузка...
    Рейтинг →
     (голосов: 1, оценка 5/5, голосовать можно 1 раз )

    Другие торренты по теме:

  • У друзей жизнь лучше / Friends with Better Lives (2014) HDTVRip | L
  • У меня мало друзей / У меня друзей не много / Boku wa tomodachi ga sukunai / I Dont Have Many Friends (2014) DVDRip | L
  • У меня мало друзей 2 / Boku wa Tomodachi ga Sukunai Next (2013) HDTVRip 720p | AniFilm


    • Комментарии (0):

      Информация

      Информация

        Посетители, находящиеся в группе Гости, не могут оставлять комментарии в данной новости.

        ↓ Меню



        ↓ Опрос

        А Вы добавили сайт в закладки?
        Да
        Не


        Top 10 за месяц (Фильмы)