.
Авторизация | Регистрация
Хочешь лучшие торренты? Добавь свой email!
Добавить
» » Сирано Де Бержерак / Сyrano de Bergerac (1990) BDRip 1080p by msltel | P скачать торрент бесплатно




    Сирано Де Бержерак / Сyrano de Bergerac (1990) BDRip 1080p by msltel | P скачать торрент бесплатно

    Опубликовал: Админ | Дата: 27-02-2015, 11:10 | Просмотров: 221



    Русское название: Сирано Де Бержерак
    Русское название в мировом прокате: Cyrano de Bergerac
    Создали в: 1990
    Категория жанра: Драма, мелодрама, комедия, биография, история
    Снималось в: Франция
    Главный режиссер: Жан-Поль Раппено
    Актеры: Жерар Депардье, Анн Броше, Венсан Перес, Жак Вебер, Ролан Бертин, Филип Морье-Жену, Филип Вольтер, Сандрин Киберлен, Людивин Санье

    Сюжет фильма: Блестящий гвардейский офицер и знаменитый поэт Сирано де Бержерак влюблён в свою кузину Роксанну, о чём она даже не подозревает. Насколько Сирано храбр на поле битвы и в многочисленных дуэлях, настолько же робок в любви. Из-за своего непомерно длинного носа он совершенно уверен, что Роксанна отвергнет его ухаживания. Поэтому от имени своего товарища Кристиана Сирано пишет ей пылкие любовные послания и прекрасные стихи. Благодаря им Кристиан завоёвывает сердце Роксанны, но погибает на войне, так и не успев признаться ей, что стихи и письма написаны Сирано. А тот хранит эту тайну до своей собственной смерти.

    Качество фильма: BDRip 1080p
    Размер скачиваемого торрента: 19.25 ГБ
    Время просмотра: 02:18:03

    Информация о видео: MPEG-4 AVC, 14.2 Mбит/с, 1800x1080
    Информация о звуке 1: русский, 48 kHz, DTS, 6 ch, 1509 kbps avg, Профессиональный многоголосый, Кармен Видео
    Информация о звуке 2: русский, 48 kHz, DTS, 6 ch, 1509 kbps avg, Профессиональный многоголосый, DVD Магия

    Внешние файлы
    Информация о звуке: русский, 48 kHz, AC3, 6 ch, 448 kbps avg, Профессиональный многоголосый, Кармен Видео
    Информация о звуке: русский, 48 kHz, AC3, 6 ch, 448 kbps avg, Профессиональный многоголосый, DVD Магия
    Информация о звуке: французский, 48 kHz, DTS, 6 ch, 1509 kbps avg, Оригинал
    Субтитры: русские
    Субтитры: английские

    Исходник: posodobl (Кинозал)

    Сравнение с исходником



    Награды

    Сезар, 1995 год
    Победитель (1):
    Сезар Сезаров за лучший фильм десятилетия (Жан-Поль Раппено)

    Британская академия, 1992 год
    Победитель (4):
    Лучшая работа оператора
    Лучшие костюмы
    Лучший саундтрек
    Лучший грим

    Номинации (4):
    Лучший фильм на иностранном языке
    Лучшая мужская роль (Жерар Депардье)
    Лучший адаптированный сценарий
    Лучшая работа художника-постановщика

    Оскар, 1991 год
    Победитель (1):
    Лучшие костюмы

    Номинации (4):
    Лучшая мужская роль (Жерар Депардье)
    Лучшие декорации
    Лучший грим
    Лучший фильм на иностранном языке — Франция

    Золотой глобус, 1991 год
    Победитель (1):
    Лучший фильм на иностранном языке — Франция

    Сезар, 1991 год
    Победитель (10):
    Лучший фильм
    Лучший актер (Жерар Депардье)
    Лучший актер второго плана (Жак Вебер)
    Лучший режиссер (Жан-Поль Раппено)
    Лучшая работа оператора
    Лучшие костюмы
    Лучший звук
    Лучший монтаж
    Лучший саундтрек
    Лучшие декорации

    Номинации (3):
    Самый многообещающий актер (Венсан Перес)
    Лучшая актриса (Анн Броше)
    Лучший адаптированный или оригинальный сценарий

    Каннский кинофестиваль, 1990 год
    Победитель (2):
    Серебряная премия за лучшую мужскую роль (Жерар Депардье)
    Технический гран-при

    Номинации (1):
    Золотая пальмовая ветвь

    Европейская киноакадемия, 1990 год
    Победитель (1):
    Лучшая работа художника-постановщика

    Номинации (5):
    Лучший фильм
    Лучшая мужская роль (Жерар Депардье)
    Лучшая женская роль (Анн Броше)
    Лучшая операторская работа (Пьер Ломм)
    Лучший композитор (Жан-Клод Пети)
    MediaInfo + Лог х264
    Общее
    Полное имя : D:VideoSirano de Bergerak.1990.x264.BDRip.1080pSirano de Bergerak.1990.eng.srt
    Формат : SubRip
    Размер файла : 118 Кбайт

    Текст
    Формат : SubRip
    Метод сжатия : Без потерь

    Общее
    Полное имя : D:VideoSirano de Bergerak.1990.x264.BDRip.1080pSirano de Bergerak.1990.MVO.rus.DVD Магия.ac3
    Формат : AC-3
    Формат/Информация : Audio Coding 3
    Размер файла : 442 Мбайт
    Продолжительность : 2 ч. 18 м.
    Режим общего битрейта : Постоянный
    Общий поток : 448 Кбит/сек

    Аудио
    Формат : AC-3
    Формат/Информация : Audio Coding 3
    Расширение режима : CM (complete main)
    Параметр Endianness формата : Big
    Продолжительность : 2 ч. 18 м.
    Вид битрейта : Постоянный
    Битрейт : 448 Кбит/сек
    Каналы : 6 каналов
    Расположение каналов : Front: L C R, Side: L R, LFE
    Частота : 48,0 КГц
    Битовая глубина : 16 бит
    Метод сжатия : С потерями
    Размер потока : 442 Мбайт (100%)

    Общее
    Полное имя : D:VideoSirano de Bergerak.1990.x264.BDRip.1080pSirano de Bergerak.1990.MVO.rus.Кармен Видео.ac3
    Формат : AC-3
    Формат/Информация : Audio Coding 3
    Размер файла : 442 Мбайт
    Продолжительность : 2 ч. 18 м.
    Режим общего битрейта : Постоянный
    Общий поток : 448 Кбит/сек

    Аудио
    Формат : AC-3
    Формат/Информация : Audio Coding 3
    Расширение режима : CM (complete main)
    Параметр Endianness формата : Big
    Продолжительность : 2 ч. 18 м.
    Вид битрейта : Постоянный
    Битрейт : 448 Кбит/сек
    Каналы : 6 каналов
    Расположение каналов : Front: L C R, Side: L R, LFE
    Частота : 48,0 КГц
    Битовая глубина : 16 бит
    Метод сжатия : С потерями
    Размер потока : 442 Мбайт (100%)

    Общее
    Полное имя : D:VideoSirano de Bergerak.1990.x264.BDRip.1080pSirano de Bergerak.1990.Original.fre.dts
    Формат : DTS
    Формат/Информация : Digital Theater Systems
    Размер файла : 1,46 Гбайт
    Продолжительность : 2 ч. 18 м.
    Режим общего битрейта : Постоянный
    Общий поток : 1509 Кбит/сек

    Аудио
    Формат : DTS
    Формат/Информация : Digital Theater Systems
    Режим : 16
    Параметр Endianness формата : Big
    Продолжительность : 2 ч. 18 м.
    Вид битрейта : Постоянный
    Битрейт : 1509 Кбит/сек
    Каналы : 6 каналов
    Расположение каналов : Front: L C R, Side: L R, LFE
    Частота : 48,0 КГц
    Битовая глубина : 16 бит
    Метод сжатия : С потерями
    Размер потока : 1,46 Гбайт (100%)

    Общее
    Полное имя : D:VideoSirano de Bergerak.1990.x264.BDRip.1080pSirano de Bergerak.1990.rus.srt
    Формат : SubRip
    Размер файла : 154 Кбайт

    Текст
    Формат : SubRip
    Метод сжатия : Без потерь

    Общее
    Уникальный идентификатор : 191291324837713887050762467718564965669 (0x8FE95E7AC22C5ED08B20EAC5ACAC6D25)
    Полное имя : D:VideoSirano de Bergerak.1990.x264.BDRip.1080pSirano de Bergerak.1990.x264.BDRip.1080p.mkv
    Формат : Matroska
    Версия формата : Version 4 / Version 2
    Размер файла : 16,9 Гбайт
    Продолжительность : 2 ч. 18 м.
    Общий поток : 17,6 Мбит/сек
    Дата кодирования : UTC 2014-04-19 06:56:03
    Программа кодирования : mkvmerge v6.8.0 (;Theme for Great Cities;) 64bit built on Mar 2 2014 21:34:26
    Библиотека кодирования : libebml v1.3.0 + libmatroska v1.4.1

    Видео
    Идентификатор : 1
    Формат : AVC
    Формат/Информация : Advanced Video Codec
    Профиль формата : High@L4.1
    Параметр CABAC формата : Да
    Параметр ReFrames формата : 4 кадра
    Идентификатор кодека : V_MPEG4/ISO/AVC
    Продолжительность : 2 ч. 18 м.
    Битрейт : 14,2 Мбит/сек
    Ширина : 1800 пикселей
    Высота : 1080 пикселей
    Соотношение сторон : 1,667
    Режим частоты кадров : Постоянный
    Частота кадров : 23,976 кадра/сек
    Цветовое пространство : YUV
    Субдискретизация насыщенности : 4:2:0
    Битовая глубина : 8 бит
    Тип развёртки : Прогрессивная
    Бит/(Пиксели*Кадры) : 0.304
    Размер потока : 13,7 Гбайт (81%)
    Заголовок : BDRip -- STarankov
    Библиотека кодирования : x264 core 138 r2358 9e941d1
    Залил: msltel
    Размер скачиваемого торрента: 19.25 GB (20670024518 Bytes)


    Сирано Де Бержерак / Сyrano de Bergerac (1990) BDRip 1080p by msltel | P торрент скачать бесплатно
    загрузка...
    Рейтинг →
     (голосов: 1, оценка 4/5, голосовать можно 1 раз )

    Другие торренты по теме:

  • Сирано Де Бержерак / Cyrano de Bergerac (1990) BDRip-AVC от MediaClub | P
  • Сирано Де Бержерак / Cyrano de Bergerac (1990) BDRip 720p by msltel | P скачать через торрент бесплатно
  • Сирано де Бержерак (Малый театр) / 2012 / РУ / TVRip


    • Комментарии (0):

      Информация

      Информация

        Посетители, находящиеся в группе Гости, не могут оставлять комментарии в данной новости.

        ↓ Меню



        ↓ Опрос

        А Вы добавили сайт в закладки?
        Да
        Не


        Top 10 за месяц (Фильмы)