.
Авторизация | Регистрация
Хочешь лучшие торренты? Добавь свой email!
Добавить
» » Большой калибр / Loose Cannons (1990) DVDRip от New-Team скачать торрент бесплатно




    Большой калибр / Loose Cannons (1990) DVDRip от New-Team скачать торрент бесплатно

    Опубликовал: Админ | Дата: 27-02-2015, 11:10 | Просмотров: 205


    Снималось в: Польша, США
    Создали в: TriStar Pictures

    Категория жанра: боевик, триллер, комедия, криминал
    Создали в: 1990
    Время просмотра: 01:34:10

    Перевод текста: Профессиональный (двухголосый закадровый),
    Авторский (одноголосый закадровый) А. Михалев, С. Визгунов
    Оригинальная аудиодорожка: английский
    Субтитры подготовлены: нет

    Главный режиссер: Боб Кларк / Bob Clark

    Актеры:
    Джин Хэкмэн, Дэн Эйкройд, Дом ДеЛуиз, Ронни Кокс, Нэнси Трэвис, Роберт Проски, Пол Косло, Дик О;Нэйлл, Ян Триска, Леон Риппи (Gene Hackman, Dan Aykroyd, Dom DeLuise, Ronny Cox, Nancy Travis, Robert Prosky, Paul Koslo, Dick O;Neill, Jan Triska, Leon Rippy)...

    Сюжет:
    Они должны были стать идеальной командой. Мак Стерн — крутой вашингтонский коп-ветеран, не стесняющийся пускать в ход пудовые кулаки и верный пистолет. И Эллис Филдинг — умница детектив, чьи дедуктивные таланты заставили бы покраснеть от зависти самого Шерлока Холмса. Но, как известно, в любой бочке меда есть цистерна дегтя. Мак любезен как разъяренный бультерьер, а у Эллиса… У Эллиса, мягко говоря, не все дома. В минуты стресса он впадает в легкий психоз, начиная воображать себя то одним, то другим популярным телегероем. И вот этой невменяемой парочке поручают расследование серии убийств, как-то связанных со зловещими тайнами Третьего Рейха! Такого цирка жители Вашингтона еще не видели!..



    Исходник: DVD5
    Тип релиза: DVDRip
    Контейнер: AVI

    Информация о видео: 704x304 (2.35:1), 23.976 fps, XviD ~ 1441 kbps avg, 0.281 bit/pixel
    Информация о звуке: 48 kHz, Dolby Digital AC3 2.0, 192 kbps DVO
    Информация о звуке: 48 kHz, Dolby Digital AC3 2.0, 192 kbps А. Михалев
    Информация о звуке: 48 kHz, Dolby Digital AC3 2.0, 192 kbps С. Визгунов
    Информация о звуке: 48 kHz, Dolby Digital AC3 2.0, 192 kbps Английский

    Раздача от:
    MediaInfo

    Общее
    Полное имя : Bolshoy.kalibr.1990.DVDRip_New-team_by_AVP_Studio.avi
    Формат : AVI
    Формат/Информация : Audio Video Interleave
    Размер файла : 1,46 Гбайт
    Продолжительность : 1 ч. 33 м.
    Общий поток : 2232 Кбит/сек
    Программа кодирования : VirtualDubModRus 1.5.10.2 (build 2542/release)
    Библиотека кодирования : VirtualDubMod build 2542/release

    Видео
    Идентификатор : 0
    Формат : MPEG-4 Visual
    Профиль формата : Advanced Simple@L5
    Параметр BVOP формата : 1
    Параметр QPel формата : Нет
    Параметр GMC формата : Без точки перехода
    Параметр матрицы формата : Выборочная
    Идентификатор кодека : XVID
    Идентификатор кодека/Подсказка : XviD
    Продолжительность : 1 ч. 33 м.
    Битрейт : 1441 Кбит/сек
    Ширина : 704 пикселя
    Высота : 304 пикселя
    Соотношение сторон : 2,35:1
    Частота кадров : 23,976 кадра/сек
    Цветовое пространство : YUV
    Субдискретизация насыщенности : 4:2:0
    Битовая глубина : 8 бит
    Тип развёртки : Прогрессивная
    Метод сжатия : С потерями
    Бит/(Пиксели*Кадры) : 0.281
    Размер потока : 965 Мбайт (65%)
    Библиотека кодирования : XviD 73

    Аудио #1
    Идентификатор : 1
    Формат : AC-3
    Формат/Информация : Audio Coding 3
    Расширение режима : CM (complete main)
    Параметр Endianness формата : Big
    Идентификатор кодека : 2000
    Продолжительность : 1 ч. 33 м.
    Вид битрейта : Постоянный
    Битрейт : 192 Кбит/сек
    Каналы : 2 канала
    Расположение каналов : Front: L R
    Частота : 48,0 КГц
    Битовая глубина : 16 бит
    Метод сжатия : С потерями
    Размер потока : 129 Мбайт (9%)
    Выравнивание : Разделение по промежуткам
    Продолжительность промежутка : 42 мс. (1,00 видеокадр)
    Время предзагрузки промежутка : 500 мс.

    Аудио #2
    Идентификатор : 2
    Формат : AC-3
    Формат/Информация : Audio Coding 3
    Расширение режима : CM (complete main)
    Параметр Endianness формата : Big
    Идентификатор кодека : 2000
    Продолжительность : 1 ч. 33 м.
    Вид битрейта : Постоянный
    Битрейт : 192 Кбит/сек
    Каналы : 2 канала
    Расположение каналов : Front: L R
    Частота : 48,0 КГц
    Битовая глубина : 16 бит
    Метод сжатия : С потерями
    Размер потока : 129 Мбайт (9%)
    Выравнивание : Разделение по промежуткам
    Продолжительность промежутка : 42 мс. (1,00 видеокадр)
    Время предзагрузки промежутка : 500 мс.

    Аудио #3
    Идентификатор : 3
    Формат : AC-3
    Формат/Информация : Audio Coding 3
    Расширение режима : CM (complete main)
    Параметр Endianness формата : Big
    Идентификатор кодека : 2000
    Продолжительность : 1 ч. 33 м.
    Вид битрейта : Постоянный
    Битрейт : 192 Кбит/сек
    Каналы : 2 канала
    Расположение каналов : Front: L R
    Частота : 48,0 КГц
    Битовая глубина : 16 бит
    Метод сжатия : С потерями
    Размер потока : 129 Мбайт (9%)
    Выравнивание : Разделение по промежуткам
    Продолжительность промежутка : 42 мс. (1,00 видеокадр)
    Время предзагрузки промежутка : 500 мс.

    Аудио #4
    Идентификатор : 4
    Формат : AC-3
    Формат/Информация : Audio Coding 3
    Профиль формата : Dolby Digital
    Расширение режима : CM (complete main)
    Параметр Endianness формата : Big
    Идентификатор кодека : 2000
    Продолжительность : 1 ч. 33 м.
    Вид битрейта : Постоянный
    Битрейт : 192 Кбит/сек
    Каналы : 2 канала
    Расположение каналов : Front: L R
    Частота : 48,0 КГц
    Битовая глубина : 16 бит
    Метод сжатия : С потерями
    Размер потока : 129 Мбайт (9%)
    Выравнивание : Разделение по промежуткам
    Продолжительность промежутка : 42 мс. (1,00 видеокадр)
    Время предзагрузки промежутка : 500 мс

    Скриншоты для ознакомления



    Залил: AVPStudio
    Размер скачиваемого торрента: 1.46 GB (1567737856 Bytes)

    Большой калибр / Loose Cannons (1990) DVDRip от New-Team торрент скачать бесплатно
    загрузка...
    Рейтинг →
     (голосов: 1, оценка 3/5, голосовать можно 1 раз )

    Другие торренты по теме:

  • Большой калибр / Loose Cannons (1990) DVDRip-AVC от New-Team


    • Комментарии (0):

      Информация

      Информация

        Посетители, находящиеся в группе Гости, не могут оставлять комментарии в данной новости.

        ↓ Меню



        ↓ Опрос

        А Вы добавили сайт в закладки?
        Да
        Не


        Top 10 за месяц (Фильмы)