.
Авторизация | Регистрация
Хочешь лучшие торренты? Добавь свой email!
Добавить
» » Игра Эндера / Enders Game (2013) BDRip-AVC | iPhone | P1 скачать торрент бесплатно




    Игра Эндера / Enders Game (2013) BDRip-AVC | iPhone | P1 скачать торрент бесплатно

    Опубликовал: Админ | Дата: 27-02-2015, 11:10 | Просмотров: 272



    Игра Эндера / Ender;s Game (2013) BDRip-AVC | iPhone | P1

    Русское название: Игра Эндера
    Русское название в мировом прокате: Ender;s Game
    Создали в: 2013
    Категория жанра: фантастика, боевик, приключения
    Главный режиссер: Гэвин Худ
    Актеры: Эйса Баттерфилд, Харрисон Форд, Бен Кингсли, Виола Дэвис, Хейли Стайнфелд, Эбигейл Бреслин, Арамис Найт, Сурадж Партха, Мойзес Ариас, Кайлин Рамбо

    Сюжет фильма:
    Действие происходит в 2135 году. Человечество пережило два вторжения инопланетной расы жукеров, лишь чудом уцелев, и готовится к очередному вторжению.

    Для поиска пилотов и военачальников, способных принести Земле победу, создаётся военная школа, в которую отправляют самых талантливых детей. Среди этих детей Эндрю (Эндер) Виггин, будущий полководец Международного флота Земли и единственная надежда человечества на спасение.



    Снималось в: США
    Киностудия: Chartoff Production

    Время просмотра: 01:53:48
    Перевод текста: Русский профессиональный одноголосый закадровый

    Файл
    Кодек для видео: H.264
    Качество фильма: BDRip-AVC 480p
    Информация о видео: 640x356@851x356 (2.40:1) at 23.976 fps, AVC at 1170 kbps
    Информация о звуке:
    1: АAС 2.0 132 kbps - Русский профессиональный одноголосый закадровый (AVO, А.Гаврилов)
    2: АAС 2.0 140 kbps - Английский
    Субтитры: Русский, Английский

    MI

    General
    Complete name : C:CREATE264mod1outEnders.Game.2013.480p.P1.m4v
    Format : MPEG-4
    Codec ID : M4V
    File size : 1.16 GiB
    Duration : 1h 53mn
    Overall bit rate mode : Variable
    Overall bit rate : 1 457 Kbps
    Movie name : Игра Эндера
    Performer : Gavin Hood
    Genre : Action Adventure
    ContentType : Short Film
    Deion : Действие происходит в 2135 году. Человечество пережило два вторжения инопланетной расы жукеров (англ. buggers), лишь чудом уцелев, и готовится к очередному вторжению. Для поиска пилотов и военачальников, способных принести Земле победу...
    Recorded date : UTC 2013-11-01 07:00:00
    Encoded date : UTC 2014-04-19 08:29:22
    Tagged date : UTC 2014-04-19 20:03:54
    Copyright : © 2013 Ender’s Game Holdings LLC.
    Service name : AOL
    Cover : Yes
    Comment : Это не игра
    ContentRating : mpaa|PG-13|300|

    Title/Sort : Ender;s Game
    LongDeion : Действие происходит в 2135 году. Человечество пережило два вторжения инопланетной расы жукеров (англ. buggers), лишь чудом уцелев, и готовится к очередному вторжению. Для поиска пилотов и военачальников, способных принести Земле победу, создаётся военная школа, в которую отправляют самых талантливых детей с раннего возраста. Среди этих детей Эндрю (Эндер) Виггин, будущий полководец Международного флота Земли и единственная надежда человечества на спасение.
    AppleStoreAccountType : AOL
    AppleStoreCountry : Unknown Country
    AppleStoreCatalogID : 723143800
    Vendor : Apple:vendor_id:2013-568687

    Video
    ID : 1
    Format : AVC
    Format/Info : Advanced Video Codec
    Format profile : High@L4.1
    Format settings, CABAC : Yes
    Format settings, ReFrames : 10 frames
    Codec ID : avc1
    Codec ID/Info : Advanced Video Coding
    Duration : 1h 53mn
    Bit rate : 1 168 Kbps
    Maximum bit rate : 11.4 Mbps
    Width : 640 pixels
    Height : 356 pixels
    Display aspect ratio : 2.40:1
    Frame rate mode : Constant
    Frame rate : 23.976 fps
    Color space : YUV
    Chroma subsampling : 4:2:0
    Bit depth : 8 bits
    Scan type : Progressive
    Bits/(Pixel*Frame) : 0.214
    Stream size : 951 MiB (80%)
    Language : English
    Encoded date : UTC 2014-04-19 08:29:22
    Tagged date : UTC 2014-04-19 08:29:47
    Matrix coefficients : BT.709

    Audio #1
    ID : 2
    Format : AAC
    Format/Info : Advanced Audio Codec
    Format profile : LC
    Codec ID : 40
    Duration : 1h 53mn
    Bit rate mode : Variable
    Bit rate : 132 Kbps
    Maximum bit rate : 207 Kbps
    Channel(s) : 2 channels
    Channel positions : Front: L R
    Sampling rate : 48.0 KHz
    Compression mode : Lossy
    Stream size : 109 MiB (9%)
    Title : VO _ A.Gavrilov
    Language : Russian
    Encoded date : UTC 2014-04-19 08:24:24
    Tagged date : UTC 2014-04-19 08:29:47

    Audio #2
    ID : 3
    Format : AAC
    Format/Info : Advanced Audio Codec
    Format profile : LC
    Codec ID : 40
    Duration : 1h 53mn
    Bit rate mode : Variable
    Bit rate : 140 Kbps
    Maximum bit rate : 208 Kbps
    Channel(s) : 2 channels
    Channel positions : Front: L R
    Sampling rate : 48.0 KHz
    Compression mode : Lossy
    Stream size : 114 MiB (10%)
    Title : Original
    Language : English
    Encoded date : UTC 2014-04-19 08:29:40
    Tagged date : UTC 2014-04-19 08:29:47

    Text #1
    ID : 4
    Format : Timed Text
    Muxing mode : sbtl
    Codec ID : tx3g
    Duration : 1h 45mn
    Bit rate mode : Variable
    Bit rate : 93 bps
    Stream size : 71.9 KiB (0%)
    Language : Russian
    Encoded date : UTC 2014-04-19 08:29:46
    Tagged date : UTC 2014-04-19 08:29:47

    Text #2
    ID : 5
    Format : Timed Text
    Muxing mode : sbtl
    Codec ID : tx3g
    Duration : 1h 45mn
    Bit rate mode : Variable
    Bit rate : 65 bps
    Stream size : 50.6 KiB (0%)
    Language : English
    Encoded date : UTC 2014-04-19 08:29:46
    Tagged date : UTC 2014-04-19 08:29:47

    iTunes tags


    Sort Name: Ender;s Game
    XID: Apple:vendor_id:2013-568687
    Content ID: 723143800
    Copyright: © 2013 Ender’s Game Holdings LLC.
    ScreenWriters: Гэвин Худ, Орсон Скотт Кард
    Producers: Орсон Скотт Кард, Роберт Чартофф, Линн Хенди
    Director: Гэвин Худ
    Cast: Эйса Баттерфилд, Харрисон Форд, Бен Кингсли, Виола Дэвис, Хейли Стайнфелд, Эбигейл Бреслин, Арамис Найт, Сурадж Партха, Мойзес Ариас, Кайлин Рамб // Asa Butterfield (Ender Wiggin), Harrison Ford (Colonel Hyrum Graff), Hailee Steinfeld (Petra Arkanian), Abigail Breslin (Valentine Wiggin), Ben Kingsley (Mazer Rackham), Viola Davis (Major Gwen Anderson), Aramis Knight (Bean), Suraj Partha (Alai), Moises Arias (Bonzo Madrid), Khylin Rhambo (Dink Meeker), Jimmy Jax Pinchak (Peter Wiggin), Conor Carroll (Bernard)
    Rating: PG-13
    Long Deion: Действие происходит в 2135 году. Человечество пережило два вторжения инопланетной расы жукеров (англ. buggers), лишь чудом уцелев, и готовится к очередному вторжению. Для поиска пилотов и военачальников, способных принести Земле победу, создаётся военная школа, в которую отправляют самых талантливых детей с раннего возраста. Среди этих детей Эндрю (Эндер) Виггин, будущий полководец Международного флота Земли и единственная надежда человечества на спасение.
    Deion: Действие происходит в 2135 году. Человечество пережило два вторжения инопланетной расы жукеров (англ. buggers), лишь чудом уцелев, и готовится к очередному вторжению. Для поиска пилотов и военачальников, способных принести Земле победу...
    Release Date: 2013-11-01T07:00:00Z
    Genre: Action Adventure
    Artist: Gavin Hood
    Name: Игра Эндера
    Comments: Это не игра

    x264

    x264 info: frame I:1809 Avg QP:14.23 size: 42926
    x264 info: frame P:36381 Avg QP:18.98 size: 13687
    x264 info: frame B:125538 Avg QP:23.28 size: 3357
    x264 info: consecutive B-frames: 2.6% 2.9% 7.4% 29.9% 14.7% 28.3% 3.2% 4.5% 1.1% 2.7% 0.7% 0.4% 0.2% 1.4% 0.0%
    x264 info: mb I I16..4: 14.2% 41.6% 44.2%
    x264 info: mb P I16..4: 0.9% 6.4% 3.4% P16..4: 26.3% 31.1% 14.1% 6.0% 1.8% skip:10.0%
    x264 info: mb B I16..4: 0.1% 0.9% 0.6% B16..8: 32.2% 14.1% 2.5% direct: 3.5% skip:46.0% L0:38.8% L1:44.7% BI:16.5%
    x264 info: 8x8 transform intra:54.6% inter:36.4%
    x264 info: coded y,uvDC,uvAC intra: 82.5% 78.1% 53.4% inter: 15.9% 10.4% 5.0%
    x264 info: i16 v,h,dc,p: 17% 12% 12% 59%
    x264 info: i8 v,h,dc,ddl,ddr,vr,hd,vl,hu: 14% 7% 5% 9% 13% 14% 12% 13% 13%
    x264 info: i4 v,h,dc,ddl,ddr,vr,hd,vl,hu: 28% 7% 6% 8% 11% 11% 9% 10% 10%
    x264 info: i8c dc,h,v,p: 32% 26% 22% 20%
    x264 info: Weighted P-Frames: Y:6.6% UV:3.8%
    x264 info: ref P L0: 60.3% 11.2% 13.3% 4.9% 3.3% 2.4% 1.8% 1.0% 0.8% 0.8% 0.1% 0.0%
    x264 info: ref B L0: 84.3% 7.3% 3.3% 1.5% 1.2% 0.9% 0.8% 0.4% 0.2%
    x264 info: ref B L1: 93.9% 6.1%
    x264 info: kb/s:1168.09



    full-size screenshots






    Залил: gekka
    Размер скачиваемого торрента: 1.16 GB (1243719500 Bytes)

    Игра Эндера / Enders Game (2013) BDRip-AVC | iPhone | P1 торрент скачать бесплатно
    загрузка...
    Рейтинг →
     (голосов: 1, оценка 4/5, голосовать можно 1 раз )

    Другие торренты по теме:

  • Орсон Скотт Кард - Игра Эндера (2009) MP3
  • OST - Игра Эндера / Enders Game (2013) FLAC скачать через торрент бесплатно
  • Игра Эндера (2013) HDRip лицензия
  • Игра Эндера / Enders Game (2013) TS
  • Игра Эндера / Enders Game (2013) HDTVRip 720p | Звук TS скачать через торрент бесплатно
  • Игра Эндера / Enders Game (2013) HDTVRip | Звук TS скачать через торрент бесплатно
  • Игра Эндера / Enders Game (2013) HDTV 720p | Звук с TS
  • Игра Эндера / Enders Game (2013) WEB-DL 1080p | Звук с TS скачать через торрент бесплатно


    • Комментарии (0):

      Информация

      Информация

        Посетители, находящиеся в группе Гости, не могут оставлять комментарии в данной новости.

        ↓ Меню



        ↓ Опрос

        А Вы добавили сайт в закладки?
        Да
        Не


        Top 10 за месяц (Фильмы)