.
Авторизация | Регистрация
Хочешь лучшие торренты? Добавь свой email!
Добавить
» » Другие 48 часов / Another 48 Hrs (1990) BDRip от New-Team | P, А скачать через торрент бесплатно




    Другие 48 часов / Another 48 Hrs (1990) BDRip от New-Team | P, А скачать через торрент бесплатно

    Опубликовал: Админ | Дата: 27-02-2015, 11:10 | Просмотров: 316


    Снималось в: США
    Создали в: Eddie Murphy Productions, Lawrence Gordon Productions, Paramount Pictures
    Категория жанра: боевик, триллер, драма, комедия, криминал
    Создали в: 1990
    Время просмотра: 01:31:23

    Перевод текста: Профессиональный (многоголосый закадровый) НТВ ,
    Авторский (одноголосый закадровый) А. Гаврилов
    Оригинальная аудиодорожка: нет
    Субтитры подготовлены: нет

    Главный режиссер: Уолтер Хилл / Walter Hill

    Актеры:
    Эдди Мерфи, Ник Нолти, Брайон Джеймс, Кевин Тиге, Эд О;Росс, Дэвид Энтони Маршалл, Эндрю Дивофф, Берни Кейси, Брент Дженнингс, Тед Марклэнд и др.

    Сюжет:
    Толпа охотится за головой Регги. Автобус, в котором он едет, переворачивается 17 раз. Его дорогой Порше превращается в груду металла. Подонки в баре еще не знают, как опасно раздражать Регги. А ночь еще только начинается. За эти 48 часов Регги и Джек перевернут весь Сан-Франциско в погоне за неуловимым наркобароном. Мальчики вернулись в город… заварушка на улицах начинается…




    Исходник: HDTV 1080i
    Тип релиза: HDTVRip
    Контейнер: AVI

    Информация о видео: 720x400 (16:9), 25 fps, XviD ~ 1377 kbps avg, 0.191 bit/pixel
    Информация о звуке: 48 kHz, Dolby Digital AC3 5.1, 448 kbps MVO
    Информация о звуке: 48 kHz, Dolby Digital AC3 5.1, 448 kbps А. Гаврилов

    Раздача от:
    MediaInfo

    Общее
    Полное имя : Drugie.48.chasov.1990.HDTVRip_New-team_by_AVP_Studio.avi
    Формат : AVI
    Формат/Информация : Audio Video Interleave
    Размер файла : 1,46 Гбайт
    Продолжительность : 1 ч. 31 м.
    Общий поток : 2287 Кбит/сек
    Программа кодирования : VirtualDubModRus 1.5.10.2 (build 2542/release)
    Библиотека кодирования : VirtualDubMod build 2542/release

    Видео
    Идентификатор : 0
    Формат : MPEG-4 Visual
    Профиль формата : Advanced Simple@L5
    Параметр BVOP формата : 1
    Параметр QPel формата : Нет
    Параметр GMC формата : Без точки перехода
    Параметр матрицы формата : Выборочная
    Идентификатор кодека : XVID
    Идентификатор кодека/Подсказка : XviD
    Продолжительность : 1 ч. 31 м.
    Битрейт : 1377 Кбит/сек
    Ширина : 720 пикселей
    Высота : 400 пикселей
    Соотношение сторон : 16:9
    Частота кадров : 25,000 кадров/сек
    Цветовое пространство : YUV
    Субдискретизация насыщенности : 4:2:0
    Битовая глубина : 8 бит
    Тип развёртки : Прогрессивная
    Метод сжатия : С потерями
    Бит/(Пиксели*Кадры) : 0.191
    Размер потока : 900 Мбайт (60%)
    Библиотека кодирования : XviD 73

    Аудио #1
    Идентификатор : 1
    Формат : AC-3
    Формат/Информация : Audio Coding 3
    Расширение режима : CM (complete main)
    Параметр Endianness формата : Big
    Идентификатор кодека : 2000
    Продолжительность : 1 ч. 31 м.
    Вид битрейта : Постоянный
    Битрейт : 448 Кбит/сек
    Каналы : 6 каналов
    Расположение каналов : Front: L C R, Side: L R, LFE
    Частота : 48,0 КГц
    Битовая глубина : 16 бит
    Метод сжатия : С потерями
    Размер потока : 293 Мбайт (20%)
    Выравнивание : Разделение по промежуткам
    Продолжительность промежутка : 40 мс. (1,00 видеокадр)
    Время предзагрузки промежутка : 500 мс.

    Аудио #2
    Идентификатор : 2
    Формат : AC-3
    Формат/Информация : Audio Coding 3
    Расширение режима : CM (complete main)
    Параметр Endianness формата : Big
    Идентификатор кодека : 2000
    Продолжительность : 1 ч. 31 м.
    Вид битрейта : Постоянный
    Битрейт : 448 Кбит/сек
    Каналы : 6 каналов
    Расположение каналов : Front: L C R, Side: L R, LFE
    Частота : 48,0 КГц
    Битовая глубина : 16 бит
    Метод сжатия : С потерями
    Размер потока : 293 Мбайт (20%)
    Выравнивание : Разделение по промежуткам
    Продолжительность промежутка : 40 мс. (1,00 видеокадр)
    Время предзагрузки промежутка : 500 мс

    Скриншоты для ознакомления



    Залил: AVPStudio
    Размер скачиваемого торрента: 1.46 GB (1567799296 Bytes)

    Другие 48 часов / Another 48 Hrs (1990) BDRip от New-Team | P, А скачать через торрент бесплатно
    загрузка...
    Рейтинг →
     (голосов: 1, оценка 3/5, голосовать можно 1 раз )

    Другие торренты по теме:

  • Другие 48 часов / Another 48 Hrs (1990) BDRip-AVC от New-Team | P, А скачать через торрент бесплатно
  • Другие 48 часов / Another 48 Hrs (1990) BDRip от New-Team | P скачать через торрент бесплатно
  • Другие 48 часов / Another 48 Hrs (1990) HDRip от Scarabey | P
  • Другие 48 часов / Another 48 Hrs (1990) HDRip от Scarabey | P


    • Комментарии (0):

      Информация

      Информация

        Посетители, находящиеся в группе Гости, не могут оставлять комментарии в данной новости.

        ↓ Меню



        ↓ Опрос

        А Вы добавили сайт в закладки?
        Да
        Не


        Top 10 за месяц (Фильмы)