.
Авторизация | Регистрация
Хочешь лучшие торренты? Добавь свой email!
Добавить
» » Университетский вампир / Vamp U (2013) BDRemux 1080p от ExKinoRay | Р2 скачать через торрент бесплатно




    Университетский вампир / Vamp U (2013) BDRemux 1080p от ExKinoRay | Р2 скачать через торрент бесплатно

    Опубликовал: Админ | Дата: 27-02-2015, 11:10 | Просмотров: 194



    Детально о кино

    Русское название: Университетский вампир
    Русское название в мировом прокате: Vamp U
    Создали в: 2013
    Категория жанра: Ужасы, боевик, комедия
    Снималось в: США, DeepStudios
    Главный режиссер: Мэтт Есперсен, Маклейн Нельсон
    Актеры: Джули Гонсало, Адам Джонсон, Алексис Нэпп, Гэри Коул, Маклейн Нельсон, Мэтт Маттсон, Барт Джонсон, Клэр Нидерпрюэм, Фрэнки Леванджи, Джейк Ван Вагонер


    Сюжет фильма: 300 лет назад вампир Уэйн Грецки утратил способность вампирствовать после потери любви всей жизни. В наши дни он коллежский профессор, однако вампирическое проклятие продолжает преследовать его.




    Файл

    Качество фильма: Blu-Ray Remux (1080p)
    Информация о видео: MPEG-4 AVC, 17948 Kбит/с, 1920x1080, 23.976 кадр/с
    Информация о звуке: Русский (AC3, 2 ch, 192 Кбит/с), английский (DTS-HD HR, 8 ch, 2046 Кбит/с)
    Размер скачиваемого торрента: 13.56 ГБ
    Время просмотра: 01:36:08
    Перевод текста: Профессиональный двухголосый
    Субтитры: Английские


    За исходник, большое спасибо BLUEBIRD
    Сохранены оригинальные чаптеры как на Blu-Ray.
    Озвучивание - профессиональное двухголосое НТВ



    Инфо-файл

    Общее
    Уникальный идентификатор : 180516477314414297523871449650344846699 (0x87CE357B3993F1598A1B364D6F5D656B)
    Полное имя : D:ЗагрузкиVamp.U.2013.BDRemux.(1080p.)ExKinoRay.mkv
    Формат : Matroska
    Версия формата : Version 2
    Размер файла : 13,6 Гбайт
    Продолжительность : 1 ч. 36 м.
    Режим общего битрейта : Переменный
    Общий поток : 20,2 Мбит/сек
    Название фильма : Университетский вампир.2013.Сборкa: ollan
    Дата кодирования : UTC 2014-04-16 01:59:55
    Программа кодирования : mkvmerge v5.6.0 (;Kenya Kane;) built on May 27 2012 16:44:04
    Библиотека кодирования : libebml v1.2.3 libmatroska v1.3.0

    Видео
    Идентификатор : 1
    Формат : AVC
    Формат/Информация : Advanced Video Codec
    Профиль формата : High@L4.1
    Параметр CABAC формата : Да
    Параметр ReFrames формата : 3 кадра
    Параметр GOP формата : M=3, N=12
    Идентификатор кодека : V_MPEG4/ISO/AVC
    Продолжительность : 1 ч. 36 м.
    Вид битрейта : Переменный
    Битрейт : 17,5 Мбит/сек
    Максимальный битрейт : 35,0 Мбит/сек
    Ширина : 1920 пикселей
    Высота : 1080 пикселей
    Соотношение сторон : 16:9
    Режим частоты кадров : Постоянный
    Частота кадров : 23,976 кадра/сек
    Стандарт вещания : NTSC
    Цветовое пространство : YUV
    Субдискретизация насыщенности : 4:2:0
    Битовая глубина : 8 бит
    Тип развёртки : Прогрессивная
    Бит/(Пиксели*Кадры) : 0.353
    Размер потока : 11,8 Гбайт (87%)
    Default : Да
    Forced : Нет
    Основные цвета : BT.709
    Характеристики трансфера : BT.709
    Коэффициенты матрицы : BT.709

    Аудио #1
    Идентификатор : 2
    Формат : AC-3
    Формат/Информация : Audio Coding 3
    Профиль формата : Dolby Digital
    Расширение режима : CM (complete main)
    Параметр Endianness формата : Big
    Идентификатор кодека : A_AC3
    Продолжительность : 1 ч. 36 м.
    Вид битрейта : Постоянный
    Битрейт : 192 Кбит/сек
    Каналы : 2 канала
    Расположение каналов : Front: L R
    Частота : 48,0 КГц
    Битовая глубина : 16 бит
    Метод сжатия : С потерями
    Размер потока : 132 Мбайт (1%)
    Заголовок : Профессиональный двухголосый
    Язык : Russian
    Default : Да
    Forced : Нет

    Аудио #2
    Идентификатор : 3
    Формат : DTS
    Формат/Информация : Digital Theater Systems
    Профиль формата : HRA / Core
    Режим : 16
    Параметр Endianness формата : Big
    Идентификатор кодека : A_DTS
    Продолжительность : 1 ч. 36 м.
    Вид битрейта : Постоянный
    Битрейт : 2046 Кбит/сек / 1509 Кбит/сек
    Каналы : 8 каналов / 6 каналов
    Расположение каналов : Front: L C R, Side: L R, Back: L R, LFE / Front: L C R, Side: L R, LFE
    Частота : 48,0 КГц
    Битовая глубина : 16 бит
    Метод сжатия : С потерями
    Размер потока : 1,37 Гбайт (10%)
    Язык : English
    Default : Нет
    Forced : Нет

    Текст
    Идентификатор : 4
    Формат : UTF-8
    Идентификатор кодека : S_TEXT/UTF8
    Идентификатор кодека/Информация : UTF-8 Plain Text
    Язык : English
    Default : Нет
    Forced : Нет

    Меню
    00:00:00.000 : :Chapter 01
    00:15:23.047 : :Chapter 02
    00:29:16.463 : :Chapter 03
    00:43:11.338 : :Chapter 04
    01:02:05.680 : :Chapter 05
    01:12:46.278 : :Chapter 06





    Скриншоты для ознакомления








    Релиз подготовил: Сборка:
    Залил: ollan
    Размер скачиваемого торрента: 13.56 GB (14556640368 Bytes)

    Университетский вампир / Vamp U (2013) BDRemux 1080p от ExKinoRay | Р2 скачать через торрент бесплатно
    загрузка...
    Рейтинг →
     (голосов: 1, оценка 5/5, голосовать можно 1 раз )

    Другие торренты по теме:

  • Университетский вампир / Vamp U (2013) WEB-DLRip | НТВ
  • Университетский вампир / Vamp U (2013) WEB-DL 720p от CINEMANIA | НТВ
  • Университетский вампир / Vamp U (2013) HDRip от Deadmauvlad | НТВ скачать через торрент бесплатно
  • Университетский вампир / Vamp U (2013) Blu-Ray | НТВ скачать через торрент бесплатно
  • Университетский вампир / Vamp U (2013) BDRip-AVC от MediaClub | P2 | НТВ скачать через торрент бесплатно
  • Университетский вампир / Vamp U (2013) BDRip от Rulya74 | НТВ скачать через торрент бесплатно
  • Университетский вампир / Vamp U (2013) BDRip-AVC | iPhone | P
  • Университетский вампир / Vamp U (2013) BDRip-AVC | iPad | P скачать через торрент бесплатно


    • Комментарии (0):

      Информация

      Информация

        Посетители, находящиеся в группе Гости, не могут оставлять комментарии в данной новости.

        ↓ Меню



        ↓ Опрос

        А Вы добавили сайт в закладки?
        Да
        Не


        Top 10 за месяц (Фильмы)