.
Авторизация | Регистрация
Хочешь лучшие торренты? Добавь свой email!
Добавить
» » Терминатор / The Terminator (1984) DVD9 DVD5 | D | Коллекционное издание скачать через торрент бесплатно




    Терминатор / The Terminator (1984) DVD9 DVD5 | D | Коллекционное издание скачать через торрент бесплатно

    Опубликовал: Админ | Дата: 27-02-2015, 11:10 | Просмотров: 262



    Детально о кино
    Русское название: Терминатор
    Русское название в мировом прокате: The Terminator
    Создали в: 1984
    Категория жанра: фантастика, боевик
    Главный режиссер: Джеймс Кэмерон
    Актеры: Арнольд Шварценеггер, Майкл Бин, Линда Хэмилтон, Пол Уинфилд, Лэнс Хенриксен, Рик Россович, Бесс Мотта, Эрл Боэн, Дик Миллер, Шон Шеппс

    Сюжет фильма:
    История противостояния солдата Кайла Риза и киборга-терминатора, прибывших в 1984-й год из пост-апокалиптического будущего, где миром правят машины-убийцы, а человечество находится на грани вымирания. Цель киборга: убить девушку по имени Сара Коннор, чей ещё нерождённый сын к 2029 году выиграет войну человечества с машинами. Цель Риза: спасти Сару и остановить Терминатора любой ценой.




    Снималось в: Великобритания, США
    Киностудия: Cinema 84, Euro Film Funding, Hemdale Films, Pacific Western
    Время просмотра: 108 мин. / 01:48
    Перевод текста: полное дублирование
    Перевод текста бонусов: профессиональный (многоголосый, закадровый)

    Файл
    Кодек для видео: MPEG2
    Качество фильма: DVD9 DVD5
    Информация о видео: PAL 16:9 (720x576@1024x576) CBR 8100 Kbps, 25.000 fps
    Информация о звуке 1: Dolby AC3, 6 ch, 48.0 KHz, 448 Kbps русский, английский
    Информация о звуке 2: DTS 6 ch, 48.0 KHz, 755 Kbps русский
    Субтитры: русские, английские

    MediaInfo
    General
    Complete name : D:Terminator.2DVDDVD1VIDEO_TSVTS_01_1.VOB
    Format : MPEG-PS
    File size : 1 024 MiB
    Duration : 14mn 26s
    Overall bit rate : 9 919 Kbps

    Video
    ID : 224 (0xE0)
    Format : MPEG Video
    Format version : Version 2
    Format profile : Main@Main
    Format settings, BVOP : No
    Format settings, Matrix : Custom
    Format settings, GOP : M=3, N=15
    Duration : 14mn 26s
    Bit rate : 8 100 Kbps
    Width : 720 pixels
    Height : 576 pixels
    Display aspect ratio : 16:9
    Frame rate : 25.000 fps
    Standard : PAL
    Color space : YUV
    Chroma subsampling : 4:2:0
    Bit depth : 8 bits
    Scan type : Interlaced
    Scan order : Top Field First
    Compression mode : Lossy
    Bits/(Pixel*Frame) : 0.781
    Time code of first frame : 00:00:00:00
    Time code source : Group of pictures t_head
    Stream size : 833 MiB (81%)

    Audio #1
    ID : 189 (0xBD)-128 (0x80)
    Format : AC-3
    Format/Info : Audio Coding 3
    Mode extension : CM (complete main)
    Format settings, Endianness : Big
    Muxing mode : DVD-Video
    Duration : 14mn 25s
    Bit rate mode : Constant
    Bit rate : 448 Kbps
    Channel(s) : 6 channels
    Channel positions : Front: L C R, Side: L R, LFE
    Sampling rate : 48.0 KHz
    Bit depth : 16 bits
    Compression mode : Lossy
    Stream size : 46.2 MiB (5%)

    Audio #2
    ID : 189 (0xBD)-130 (0x82)
    Format : AC-3
    Format/Info : Audio Coding 3
    Mode extension : CM (complete main)
    Format settings, Endianness : Big
    Muxing mode : DVD-Video
    Duration : 14mn 25s
    Bit rate mode : Constant
    Bit rate : 448 Kbps
    Channel(s) : 6 channels
    Channel positions : Front: L C R, Side: L R, LFE
    Sampling rate : 48.0 KHz
    Bit depth : 16 bits
    Compression mode : Lossy
    Stream size : 46.2 MiB (5%)

    Audio #3
    ID : 189 (0xBD)-137 (0x89)
    Format : DTS
    Format/Info : Digital Theater Systems
    Mode : 16
    Format settings, Endianness : Big
    Muxing mode : DVD-Video
    Duration : 14mn 25s
    Bit rate mode : Constant
    Bit rate : 755 Kbps
    Channel(s) : 6 channels
    Channel positions : Front: L C R, Side: L R, LFE
    Sampling rate : 48.0 KHz
    Bit depth : 24 bits
    Compression mode : Lossy
    Stream size : 77.9 MiB (8%)

    Text #1
    ID : 189 (0xBD)-32 (0x20)
    Format : RLE
    Format/Info : Run-length encoding
    Muxing mode : DVD-Video

    Text #2
    ID : 189 (0xBD)-33 (0x21)
    Format : RLE
    Format/Info : Run-length encoding
    Muxing mode : DVD-Video

    Menu

    Скриншоты для ознакомления

    Залил: carisha
    Размер скачиваемого торрента: 11.20 GB (12025399296 Bytes)

    Терминатор / The Terminator (1984) DVD9 DVD5 | D | Коллекционное издание скачать через торрент бесплатно
    загрузка...
    Рейтинг →
     (голосов: 1, оценка 3/5, голосовать можно 1 раз )

    Другие торренты по теме:

  • Терминатор: Да придёт спаситель / Terminator Salvation (2009) HDRip от Scarabey | D | Театральная версия
  • OST - Терминатор / Terminator Soundtrack Quintus (1984-2009) MP3
  • Терминатор 3: Восстание машин / Terminator 3: Rise of the Machines (2003) BD-Remux
  • Терминатор 2: Судный день / Terminator 2: Judgment Day (1991) Blu-Ray
  • Терминатор 2: Два брата терминавта или день подводника / Terminator 2: Judgment Day (1991) HDRip
  • Терминатор: Квадрология / Terminator: Quadrilogy (1984-2009) HDRip | КПК от R.G. Mobile-Men | D, P
  • Терминатор: Квадрология / The Terminator: Quadrilogy (1984-2009) HDRip-AVC от WazZzup
  • Терминатор 2: Судный день / Terminator 2: Judgment Day (1991) BDRip 1080p | Специальная расширенная версия


    • Комментарии (0):

      Информация

      Информация

        Посетители, находящиеся в группе Гости, не могут оставлять комментарии в данной новости.

        ↓ Меню



        ↓ Опрос

        А Вы добавили сайт в закладки?
        Да
        Не


        Top 10 за месяц (Фильмы)