.
Авторизация | Регистрация
Хочешь лучшие торренты? Добавь свой email!
Добавить
» » Оттепель (2013) Blu-ray 1080i от New-Team | лицензия скачать торрент бесплатно




    Оттепель (2013) Blu-ray 1080i от New-Team | лицензия скачать торрент бесплатно

    Опубликовал: Админ | Дата: 27-02-2015, 11:10 | Просмотров: 213



    Снималось в: Россия / Мармот-фильм

    Категория жанра: драма
    Создали в: 2013
    Время просмотра: 01:12:12 00:55:29 00:53:57 00:53:10 00:54:45 00:53:34 00:54:41 00:54:28 00:54:00 00:55:33 00:53:16 01:06:19
    Перевод текста: не требуется
    Субтитры подготовлены: нет
    Оригинальная аудиодорожка: русский

    Главный режиссер: Валерий Тодоровский

    Актеры: Евгений Цыганов, Александр Яценко, Анна Чиповская, Виктория Исакова, Михаил Ефремов, Светлана Колпакова, Яна Сексте, Нина Дворжецкая, Павел Деревянко, Евгений Волоцкий...

    Сюжет: Студия Мосфильм, 1961 год. Виктор Хрусталев — молодой талантливый оператор. Однажды он выпивал со своим другом-сценаристом Костиком в общаге ВГИКа. И нужно же было такому случиться: Костя выпал из окна и погиб. После его смерти он обнаруживает сценарий, который не был в свое время утвержден, и понимает, что это совершенно чумовая вещь. Он мечтает снять по этому сценарию фильм.
    На похоронах он встречается с режиссером Егором Мячиным. И вскоре им подвернулась возможность вместе поучаствовать на съемках картины под названием Девушка и бригадир. Присутствует в картине и любовная интрига. Виктор и Егор поочередно встречаются со студенткой химфака МГУ Марьяной, которая попадает на их же картину в качестве главной актрисы. Чтобы показать колорит тех времен, в завершении каждой серии звучат стихи и песни той эпохи.



    Качество фильма: Blu-ray 1080i
    Тип видео: BDAV

    Информация о видео: 1920x1080, MPEG-4 AVC Video 8789 kbps 1080i / 25 fps / 16:9 / High Profile 4.1
    Информация о звуке: Dolby Digital Audio Russian 192 kbps 2.0 / 48 kHz / 192 kbps / DN -4dB

    Дополнительные материалы: нет

    Раздача от:
    BDInfo1

    DISC INFO:

    Disc Title: Ottepel_D1
    Disc Size: 24 765 266 460 bytes
    Protection: AACS
    BD-Java: No
    Extras: 50Hz Content
    BDInfo: 0.5.8

    PLAYLIST REPORT:

    Name: 00002.MPLS
    Length: 1:12:12.439 (h:m:s.ms)
    Size: 5 147 142 144 bytes
    Total Bitrate: 9,50 Mbps

    VIDEO:

    Codec Bitrate Deion
    ----- ------- -----------
    MPEG-4 AVC Video 8789 kbps 1080i / 25 fps / 16:9 / High Profile 4.1

    AUDIO:

    Codec Language Bitrate Deion
    ----- -------- ------- -----------
    Dolby Digital Audio Russian 192 kbps 2.0 / 48 kHz / 192 kbps / DN -4dB

    FILES:

    Name Time In Length Size Total Bitrate
    ---- ------- ------ ---- -------------
    00002.M2TS 0:00:00.000 1:12:12.439 5 147 142 144 9 504

    CHAPTERS:

    Number Time In Length Avg Video Rate Max 1-Sec Rate Max 1-Sec Time Max 5-Sec Rate Max 5-Sec Time Max 10Sec Rate Max 10Sec Time Avg Frame Size Max Frame Size Max Frame Time
    ------ ------- ------ -------------- -------------- -------------- -------------- -------------- -------------- -------------- -------------- -------------- --------------
    1 0:00:00.000 0:10:12.880 8 757 kbps 29 047 kbps 00:02:04.440 13 017 kbps 00:02:04.200 10 956 kbps 00:02:04.200 43 784 bytes 257 476 bytes 00:02:04.480
    2 0:10:12.880 0:08:39.239 8 858 kbps 28 152 kbps 00:10:15.559 17 178 kbps 00:10:14.680 13 165 kbps 00:10:14.640 44 289 bytes 257 748 bytes 00:10:15.200
    3 0:18:52.119 0:10:23.760 8 798 kbps 13 690 kbps 00:28:51.640 10 162 kbps 00:24:18.440 9 552 kbps 00:19:52.720 43 992 bytes 266 489 bytes 00:26:06.440
    4 0:29:15.880 0:10:12.279 8 763 kbps 19 195 kbps 00:34:44.800 12 029 kbps 00:34:35.440 10 578 kbps 00:34:30.040 43 814 bytes 265 604 bytes 00:30:57.840
    5 0:39:28.160 0:11:23.760 8 841 kbps 30 265 kbps 00:39:28.560 13 250 kbps 00:39:28.320 11 570 kbps 00:39:28.320 44 207 bytes 265 699 bytes 00:40:16.239
    6 0:50:51.920 0:09:18.800 8 790 kbps 13 601 kbps 00:59:39.760 10 293 kbps 00:55:41.960 9 509 kbps 00:55:41.960 43 949 bytes 257 306 bytes 00:59:44.400
    7 1:00:10.720 0:12:01.719 8 731 kbps 21 537 kbps 01:04:23.600 11 156 kbps 01:09:50.000 10 072 kbps 01:09:50.040 43 659 bytes 261 414 bytes 01:02:01.520

    STREAM DIAGNOSTICS:

    File PID Type Codec Language Seconds Bitrate Bytes Packets
    ---- --- ---- ----- -------- -------------- -------------- ------------- -----
    00002.M2TS 4113 (0x1011) 0x1B AVC 4332,360 8 789 4 759 829 452 25 985 950
    00002.M2TS 4352 (0x1100) 0x81 AC3 rus (Russian) 4332,360 192 103 977 984 676 940

    /code


    QUICK SUMMARY:

    Disc Title: Ottepel_D1
    Disc Size: 24 765 266 460 bytes
    Protection: AACS
    BD-Java: No
    Playlist: 00002.MPLS
    Size: 5 147 142 144 bytes
    Length: 1:12:12.439
    Total Bitrate: 9,50 Mbps
    Video: MPEG-4 AVC Video / 8789 kbps / 1080i / 25 fps / 16:9 / High Profile 4.1
    Audio: Russian / Dolby Digital Audio / 2.0 / 48 kHz / 192 kbps / DN -4dB

    ********************
    PLAYLIST: 00003.MPLS
    ********************


    code
    Total Video
    Title Codec Length Movie Size Disc Size Bitrate Bitrate Main Audio Track Secondary Audio Track
    ----- ------ ------- -------------- -------------- ------- ------- ------------------ ---------------------
    00003.MPLS AVC 0:55:29 3 953 762 304 24 765 266 460 9,50 8,79 DD AC3 2.0 192Kbps
    /code

    code

    DISC INFO:

    Disc Title: Ottepel_D1
    Disc Size: 24 765 266 460 bytes
    Protection: AACS
    BD-Java: No
    Extras: 50Hz Content
    BDInfo: 0.5.8

    PLAYLIST REPORT:

    Name: 00003.MPLS
    Length: 0:55:29.120 (h:m:s.ms)
    Size: 3 953 762 304 bytes
    Total Bitrate: 9,50 Mbps

    VIDEO:

    Codec Bitrate Deion
    ----- ------- -----------
    MPEG-4 AVC Video 8786 kbps 1080i / 25 fps / 16:9 / High Profile 4.1

    AUDIO:

    Codec Language Bitrate Deion
    ----- -------- ------- -----------
    Dolby Digital Audio Russian 192 kbps 2.0 / 48 kHz / 192 kbps / DN -4dB

    FILES:

    Name Time In Length Size Total Bitrate
    ---- ------- ------ ---- -------------
    00004.M2TS 0:00:00.000 0:55:29.120 3 953 762 304 9 501

    CHAPTERS:

    Number Time In Length Avg Video Rate Max 1-Sec Rate Max 1-Sec Time Max 5-Sec Rate Max 5-Sec Time Max 10Sec Rate Max 10Sec Time Avg Frame Size Max Frame Size Max Frame Time
    ------ ------- ------ -------------- -------------- -------------- -------------- -------------- -------------- -------------- -------------- -------------- --------------
    1 0:00:00.000 0:09:05.240 8 814 kbps 30 764 kbps 00:02:04.200 13 166 kbps 00:02:04.200 11 021 kbps 00:02:04.200 44 068 bytes 257 501 bytes 00:02:04.600
    2 0:09:05.240 0:11:45.920 8 796 kbps 13 531 kbps 00:16:08.440 10 572 kbps 00:15:48.200 9 678 kbps 00:15:44.160 43 979 bytes 262 437 bytes 00:18:46.800
    3 0:20:51.160 0:10:26.359 8 798 kbps 14 754 kbps 00:28:45.400 10 435 kbps 00:30:26.719 9 579 kbps 00:27:58.560 43 988 bytes 255 361 bytes 00:30:23.239
    4 0:31:17.520 0:10:52.920 8 802 kbps 15 705 kbps 00:34:49.480 10 389 kbps 00:32:43.239 9 503 kbps 00:39:22.000 44 010 bytes 254 879 bytes 00:34:50.480
    5 0:42:10.440 0:06:09.520 8 800 kbps 13 707 kbps 00:44:02.800 10 278 kbps 00:46:18.000 9 505 kbps 00:46:18.000 43 999 bytes 249 873 bytes 00:45:06.520
    6 0:48:19.960 0:07:09.159 8 682 kbps 14 819 kbps 00:52:50.560 11 865 kbps 00:53:06.920 10 320 kbps 00:53:06.880 43 413 bytes 263 472 bytes 00:48:30.600

    STREAM DIAGNOSTICS:

    File PID Type Codec Language Seconds Bitrate Bytes Packets
    ---- --- ---- ----- -------- -------------- -------------- ------------- -----
    00004.M2TS 4113 (0x1011) 0x1B AVC 3329,040 8 786 3 656 261 833 19 960 794
    00004.M2TS 4352 (0x1100) 0x81 AC3 rus (Russian) 3329,040 192 79 898 112 520 170

    /code


    QUICK SUMMARY:

    Disc Title: Ottepel_D1
    Disc Size: 24 765 266 460 bytes
    Protection: AACS
    BD-Java: No
    Playlist: 00003.MPLS
    Size: 3 953 762 304 bytes
    Length: 0:55:29.120
    Total Bitrate: 9,50 Mbps
    Video: MPEG-4 AVC Video / 8786 kbps / 1080i / 25 fps / 16:9 / High Profile 4.1
    Audio: Russian / Dolby Digital Audio / 2.0 / 48 kHz / 192 kbps / DN -4dB

    ********************
    PLAYLIST: 00006.MPLS
    ********************


    code
    Total Video
    Title Codec Length Movie Size Disc Size Bitrate Bitrate Main Audio Track Secondary Audio Track
    ----- ------ ------- -------------- -------------- ------- ------- ------------------ ---------------------
    00006.MPLS AVC 0:54:45 3 901 679 616 24 765 266 460 9,50 8,79 DD AC3 2.0 192Kbps
    /code

    code

    DISC INFO:

    Disc Title: Ottepel_D1
    Disc Size: 24 765 266 460 bytes
    Protection: AACS
    BD-Java: No
    Extras: 50Hz Content
    BDInfo: 0.5.8

    PLAYLIST REPORT:

    Name: 00006.MPLS
    Length: 0:54:45.520 (h:m:s.ms)
    Size: 3 901 679 616 bytes
    Total Bitrate: 9,50 Mbps

    VIDEO:

    Codec Bitrate Deion
    ----- ------- -----------
    MPEG-4 AVC Video 8785 kbps 1080i / 25 fps / 16:9 / High Profile 4.1

    AUDIO:

    Codec Language Bitrate Deion
    ----- -------- ------- -----------
    Dolby Digital Audio Russian 192 kbps 2.0 / 48 kHz / 192 kbps / DN -4dB

    FILES:

    Name Time In Length Size Total Bitrate
    ---- ------- ------ ---- -------------
    00010.M2TS 0:00:00.000 0:54:45.520 3 901 679 616 9 500

    CHAPTERS:

    Number Time In Length Avg Video Rate Max 1-Sec Rate Max 1-Sec Time Max 5-Sec Rate Max 5-Sec Time Max 10Sec Rate Max 10Sec Time Avg Frame Size Max Frame Size Max Frame Time
    ------ ------- ------ -------------- -------------- -------------- -------------- -------------- -------------- -------------- -------------- -------------- --------------
    1 0:00:00.000 0:09:48.319 8 810 kbps 27 569 kbps 00:02:04.399 12 856 kbps 00:02:04.240 10 780 kbps 00:02:04.320 44 047 bytes 262 249 bytes 00:01:58.559
    2 0:09:48.319 0:10:47.760 8 796 kbps 13 647 kbps 00:10:48.440 9 992 kbps 00:10:48.440 9 528 kbps 00:09:53.800 43 981 bytes 245 259 bytes 00:12:21.359
    3 0:20:36.080 0:06:31.520 8 819 kbps 17 804 kbps 00:27:01.520 11 246 kbps 00:25:50.119 9 827 kbps 00:24:49.760 44 093 bytes 264 646 bytes 00:26:12.639
    4 0:27:07.600 0:12:26.800 8 791 kbps 13 778 kbps 00:38:53.080 10 621 kbps 00:38:56.719 9 833 kbps 00:35:36.440 43 957 bytes 264 319 bytes 00:37:59.880
    5 0:39:34.400 0:07:52.000 8 810 kbps 15 665 kbps 00:45:51.000 12 155 kbps 00:45:51.000 10 756 kbps 00:45:48.000 44 049 bytes 254 664 bytes 00:47:08.560
    6 0:47:26.400 0:07:19.119 8 670 kbps 17 215 kbps 00:49:35.960 11 189 kbps 00:49:33.000 9 965 kbps 00:49:27.920 43 354 bytes 258 532 bytes 00:50:58.520

    STREAM DIAGNOSTICS:

    File PID Type Codec Language Seconds Bitrate Bytes Packets
    ---- --- ---- ----- -------- -------------- -------------- ------------- -----
    00010.M2TS 4113 (0x1011) 0x1B AVC 3285,440 8 786 3 608 050 858 19 697 792
    00010.M2TS 4352 (0x1100) 0x81 AC3 rus (Russian) 3285,440 192 78 852 096 513 360

    /code


    QUICK SUMMARY:

    Disc Title: Ottepel_D1
    Disc Size: 24 765 266 460 bytes
    Protection: AACS
    BD-Java: No
    Playlist: 00006.MPLS
    Size: 3 901 679 616 bytes
    Length: 0:54:45.520
    Total Bitrate: 9,50 Mbps
    Video: MPEG-4 AVC Video / 8785 kbps / 1080i / 25 fps / 16:9 / High Profile 4.1
    Audio: Russian / Dolby Digital Audio / 2.0 / 48 kHz / 192 kbps / DN -4dB

    ********************
    PLAYLIST: 00004.MPLS
    ********************


    code
    Total Video
    Title Codec Length Movie Size Disc Size Bitrate Bitrate Main Audio Track Secondary Audio Track
    ----- ------ ------- -------------- -------------- ------- ------- ------------------ ---------------------
    00004.MPLS AVC 0:53:57 3 929 131 008 24 765 266 460 9,71 8,98 DD AC3 2.0 192Kbps
    /code

    code

    DISC INFO:

    Disc Title: Ottepel_D1
    Disc Size: 24 765 266 460 bytes
    Protection: AACS
    BD-Java: No
    Extras: 50Hz Content
    BDInfo: 0.5.8

    PLAYLIST REPORT:

    Name: 00004.MPLS
    Length: 0:53:57.719 (h:m:s.ms)
    Size: 3 929 131 008 bytes
    Total Bitrate: 9,71 Mbps

    VIDEO:

    Codec Bitrate Deion
    ----- ------- -----------
    MPEG-4 AVC Video 8985 kbps 1080i / 25 fps / 16:9 / High Profile 4.1

    AUDIO:

    Codec Language Bitrate Deion
    ----- -------- ------- -----------
    Dolby Digital Audio Russian 192 kbps 2.0 / 48 kHz / 192 kbps / DN -4dB

    FILES:

    Name Time In Length Size Total Bitrate
    ---- ------- ------ ---- -------------
    00006.M2TS 0:00:00.000 0:53:57.719 3 929 131 008 9 708

    CHAPTERS:

    Number Time In Length Avg Video Rate Max 1-Sec Rate Max 1-Sec Time Max 5-Sec Rate Max 5-Sec Time Max 10Sec Rate Max 10Sec Time Avg Frame Size Max Frame Size Max Frame Time
    ------ ------- ------ -------------- -------------- -------------- -------------- -------------- -------------- -------------- -------------- -------------- --------------
    1 0:00:00.000 0:12:25.079 9 010 kbps 30 270 kbps 00:02:04.360 13 330 kbps 00:02:04.200 11 077 kbps 00:02:04.360 45 047 bytes 284 855 bytes 00:02:04.600
    2 0:12:25.079 0:10:16.600 8 997 kbps 15 105 kbps 00:17:16.080 10 699 kbps 00:17:15.119 9 855 kbps 00:17:15.080 44 984 bytes 264 289 bytes 00:15:21.440
    3 0:22:41.680 0:08:08.999 8 999 kbps 13 854 kbps 00:24:55.000 10 555 kbps 00:30:17.840 9 658 kbps 00:30:18.320 44 997 bytes 271 627 bytes 00:30:44.520
    4 0:30:50.680 0:11:12.400 8 998 kbps 15 715 kbps 00:31:42.719 12 863 kbps 00:36:19.080 12 314 kbps 00:36:13.480 44 992 bytes 268 187 bytes 00:37:21.440
    5 0:42:03.080 0:06:32.960 9 003 kbps 13 383 kbps 00:43:43.840 10 560 kbps 00:43:43.840 9 608 kbps 00:43:42.680 45 013 bytes 264 433 bytes 00:46:45.640
    6 0:48:36.040 0:05:21.679 8 831 kbps 14 451 kbps 00:49:41.640 11 396 kbps 00:51:35.560 10 335 kbps 00:51:35.800 44 162 bytes 231 041 bytes 00:51:28.800

    STREAM DIAGNOSTICS:

    File PID Type Codec Language Seconds Bitrate Bytes Packets
    ---- --- ---- ----- -------- -------------- -------------- ------------- -----
    00006.M2TS 4113 (0x1011) 0x1B AVC 3237,600 8 985 3 636 284 473 19 849 845
    00006.M2TS 4352 (0x1100) 0x81 AC3 rus (Russian) 3237,600 192 77 704 704 505 890

    /code


    QUICK SUMMARY:

    Disc Title: Ottepel_D1
    Disc Size: 24 765 266 460 bytes
    Protection: AACS
    BD-Java: No
    Playlist: 00004.MPLS
    Size: 3 929 131 008 bytes
    Length: 0:53:57.719
    Total Bitrate: 9,71 Mbps
    Video: MPEG-4 AVC Video / 8985 kbps / 1080i / 25 fps / 16:9 / High Profile 4.1
    Audio: Russian / Dolby Digital Audio / 2.0 / 48 kHz / 192 kbps / DN -4dB

    ********************
    PLAYLIST: 00007.MPLS
    ********************


    code
    Total Video
    Title Codec Length Movie Size Disc Size Bitrate Bitrate Main Audio Track Secondary Audio Track
    ----- ------ ------- -------------- -------------- ------- ------- ------------------ ---------------------
    00007.MPLS AVC 0:53:34 3 817 039 872 24 765 266 460 9,50 8,79 DD AC3 2.0 192Kbps
    /code

    code

    DISC INFO:

    Disc Title: Ottepel_D1
    Disc Size: 24 765 266 460 bytes
    Protection: AACS
    BD-Java: No
    Extras: 50Hz Content
    BDInfo: 0.5.8

    PLAYLIST REPORT:

    Name: 00007.MPLS
    Length: 0:53:34.200 (h:m:s.ms)
    Size: 3 817 039 872 bytes
    Total Bitrate: 9,50 Mbps

    VIDEO:

    Codec Bitrate Deion
    ----- ------- -----------
    MPEG-4 AVC Video 8785 kbps 1080i / 25 fps / 16:9 / High Profile 4.1

    AUDIO:

    Codec Language Bitrate Deion
    ----- -------- ------- -----------
    Dolby Digital Audio Russian 192 kbps 2.0 / 48 kHz / 192 kbps / DN -4dB

    FILES:

    Name Time In Length Size Total Bitrate
    ---- ------- ------ ---- -------------
    00012.M2TS 0:00:00.000 0:53:34.200 3 817 039 872 9 500

    CHAPTERS:

    Number Time In Length Avg Video Rate Max 1-Sec Rate Max 1-Sec Time Max 5-Sec Rate Max 5-Sec Time Max 10Sec Rate Max 10Sec Time Avg Frame Size Max Frame Size Max Frame Time
    ------ ------- ------ -------------- -------------- -------------- -------------- -------------- -------------- -------------- -------------- -------------- --------------
    1 0:00:00.000 0:08:08.720 8 805 kbps 27 899 kbps 00:02:04.159 12 394 kbps 00:02:04.080 10 624 kbps 00:02:04.080 44 022 bytes 262 322 bytes 00:01:58.559
    2 0:08:08.720 0:08:15.200 8 810 kbps 17 988 kbps 00:14:06.240 11 877 kbps 00:14:05.200 9 833 kbps 00:09:07.680 44 049 bytes 264 168 bytes 00:14:10.160
    3 0:16:23.920 0:10:53.480 8 805 kbps 14 949 kbps 00:19:11.160 10 557 kbps 00:22:19.320 9 755 kbps 00:26:24.920 44 027 bytes 260 393 bytes 00:26:09.840
    4 0:27:17.400 0:07:17.639 8 787 kbps 14 021 kbps 00:31:59.640 10 249 kbps 00:31:44.320 9 672 kbps 00:31:44.280 43 933 bytes 252 024 bytes 00:29:50.320
    5 0:34:35.040 0:07:02.920 8 801 kbps 13 162 kbps 00:35:19.560 9 898 kbps 00:36:02.400 9 362 kbps 00:36:01.400 44 006 bytes 194 645 bytes 00:34:47.600
    6 0:41:37.960 0:11:56.239 8 727 kbps 15 347 kbps 00:50:06.640 11 019 kbps 00:51:12.000 9 938 kbps 00:51:12.080 43 637 bytes 249 546 bytes 00:50:29.360

    STREAM DIAGNOSTICS:

    File PID Type Codec Language Seconds Bitrate Bytes Packets
    ---- --- ---- ----- -------- -------------- -------------- ------------- -----
    00012.M2TS 4113 (0x1011) 0x1B AVC 3214,120 8 786 3 529 754 447 19 270 496
    00012.M2TS 4352 (0x1100) 0x81 AC3 rus (Russian) 3214,120 192 77 140 224 502 215

    /code


    QUICK SUMMARY:

    Disc Title: Ottepel_D1
    Disc Size: 24 765 266 460 bytes
    Protection: AACS
    BD-Java: No
    Playlist: 00007.MPLS
    Size: 3 817 039 872 bytes
    Length: 0:53:34.200
    Total Bitrate: 9,50 Mbps
    Video: MPEG-4 AVC Video / 8785 kbps / 1080i / 25 fps / 16:9 / High Profile 4.1
    Audio: Russian / Dolby Digital Audio / 2.0 / 48 kHz / 192 kbps / DN -4dB

    ********************
    PLAYLIST: 00005.MPLS
    ********************


    code
    Total Video
    Title Codec Length Movie Size Disc Size Bitrate Bitrate Main Audio Track Secondary Audio Track
    ----- ------ ------- -------------- -------------- ------- ------- ------------------ ---------------------
    00005.MPLS AVC 0:53:10 3 788 709 888 24 765 266 460 9,50 8,79 DD AC3 2.0 192Kbps
    /code

    code

    DISC INFO:

    Disc Title: Ottepel_D1
    Disc Size: 24 765 266 460 bytes
    Protection: AACS
    BD-Java: No
    Extras: 50Hz Content
    BDInfo: 0.5.8

    PLAYLIST REPORT:

    Name: 00005.MPLS
    Length: 0:53:10.360 (h:m:s.ms)
    Size: 3 788 709 888 bytes
    Total Bitrate: 9,50 Mbps

    VIDEO:

    Codec Bitrate Deion
    ----- ------- -----------
    MPEG-4 AVC Video 8786 kbps 1080i / 25 fps / 16:9 / High Profile 4.1

    AUDIO:

    Codec Language Bitrate Deion
    ----- -------- ------- -----------
    Dolby Digital Audio Russian 192 kbps 2.0 / 48 kHz / 192 kbps / DN -4dB

    FILES:

    Name Time In Length Size Total Bitrate
    ---- ------- ------ ---- -------------
    00008.M2TS 0:00:00.000 0:53:10.360 3 788 709 888 9 500

    CHAPTERS:

    Number Time In Length Avg Video Rate Max 1-Sec Rate Max 1-Sec Time Max 5-Sec Rate Max 5-Sec Time Max 10Sec Rate Max 10Sec Time Avg Frame Size Max Frame Size Max Frame Time
    ------ ------- ------ -------------- -------------- -------------- -------------- -------------- -------------- -------------- -------------- -------------- --------------
    1 0:00:00.000 0:08:02.920 8 815 kbps 29 682 kbps 00:02:04.200 13 200 kbps 00:02:04.200 11 073 kbps 00:02:04.200 44 070 bytes 264 068 bytes 00:08:02.839
    2 0:08:02.920 0:09:37.240 8 796 kbps 14 153 kbps 00:12:00.720 10 203 kbps 00:12:00.720 9 563 kbps 00:12:00.720 43 982 bytes 251 668 bytes 00:09:00.280
    3 0:17:40.160 0:08:27.280 8 801 kbps 12 709 kbps 00:23:20.520 10 645 kbps 00:24:07.520 9 523 kbps 00:23:20.480 44 007 bytes 262 135 bytes 00:22:51.080
    4 0:26:07.440 0:09:18.759 8 798 kbps 15 437 kbps 00:28:06.480 10 397 kbps 00:28:02.560 9 467 kbps 00:30:57.640 43 991 bytes 249 730 bytes 00:34:48.400
    5 0:35:26.200 0:11:58.080 8 799 kbps 14 886 kbps 00:39:37.640 10 238 kbps 00:40:31.200 9 718 kbps 00:43:03.720 43 995 bytes 249 954 bytes 00:42:54.760
    6 0:47:24.280 0:05:46.079 8 656 kbps 13 437 kbps 00:49:58.400 11 281 kbps 00:50:48.120 10 136 kbps 00:50:48.200 43 283 bytes 215 528 bytes 00:49:59.400

    BDInfo2

    DISC INFO:

    Disc Title: Ottepel_D2
    Disc Size: 24 349 306 996 bytes
    Protection: AACS
    BD-Java: No
    Extras: 50Hz Content
    BDInfo: 0.5.8

    PLAYLIST REPORT:

    Name: 00005.MPLS
    Length: 1:06:19.040 (h:m:s.ms)
    Size: 4 726 652 928 bytes
    Total Bitrate: 9,50 Mbps

    VIDEO:

    Codec Bitrate Deion
    ----- ------- -----------
    MPEG-4 AVC Video 8788 kbps 1080i / 25 fps / 16:9 / High Profile 4.1

    AUDIO:

    Codec Language Bitrate Deion
    ----- -------- ------- -----------
    Dolby Digital Audio Russian 192 kbps 2.0 / 48 kHz / 192 kbps / DN -4dB

    FILES:

    Name Time In Length Size Total Bitrate
    ---- ------- ------ ---- -------------
    00010.M2TS 0:00:00.000 1:06:19.040 4 726 652 928 9 503

    CHAPTERS:

    Number Time In Length Avg Video Rate Max 1-Sec Rate Max 1-Sec Time Max 5-Sec Rate Max 5-Sec Time Max 10Sec Rate Max 10Sec Time Avg Frame Size Max Frame Size Max Frame Time
    ------ ------- ------ -------------- -------------- -------------- -------------- -------------- -------------- -------------- -------------- -------------- --------------
    1 0:00:00.000 0:09:39.319 8 807 kbps 27 780 kbps 00:02:04.200 12 792 kbps 00:02:04.200 10 947 kbps 00:02:04.200 44 033 bytes 266 044 bytes 00:05:15.600
    2 0:09:39.319 0:06:37.160 8 796 kbps 13 021 kbps 00:12:35.280 9 806 kbps 00:10:06.319 9 354 kbps 00:12:26.319 43 982 bytes 229 070 bytes 00:12:18.400
    3 0:16:16.480 0:11:47.400 8 800 kbps 19 582 kbps 00:16:47.480 10 603 kbps 00:16:43.480 9 978 kbps 00:16:38.440 44 001 bytes 242 454 bytes 00:27:54.719
    4 0:28:03.880 0:07:34.639 8 806 kbps 17 903 kbps 00:32:35.640 11 002 kbps 00:32:45.600 9 980 kbps 00:32:40.560 44 029 bytes 260 385 bytes 00:32:49.680
    5 0:35:38.520 0:08:39.880 8 794 kbps 27 086 kbps 00:38:13.080 12 079 kbps 00:38:13.040 10 536 kbps 00:38:13.080 43 968 bytes 250 393 bytes 00:38:11.120
    6 0:44:18.400 0:09:33.880 8 807 kbps 13 687 kbps 00:48:02.960 10 007 kbps 00:44:19.360 9 522 kbps 00:49:40.080 44 037 bytes 240 431 bytes 00:53:52.280
    7 0:53:52.280 0:12:26.759 8 728 kbps 16 286 kbps 01:01:47.040 11 194 kbps 01:03:56.560 10 070 kbps 01:03:56.880 43 640 bytes 250 254 bytes 00:57:39.000

    STREAM DIAGNOSTICS:

    File PID Type Codec Language Seconds Bitrate Bytes Packets
    ---- --- ---- ----- -------- -------------- -------------- ------------- -----
    00010.M2TS 4113 (0x1011) 0x1B AVC 3978,960 8 788 4 370 997 487 23 862 935
    00010.M2TS 4352 (0x1100) 0x81 AC3 rus (Russian) 3978,960 192 95 496 192 621 720

    /code


    QUICK SUMMARY:

    Disc Title: Ottepel_D2
    Disc Size: 24 349 306 996 bytes
    Protection: AACS
    BD-Java: No
    Playlist: 00005.MPLS
    Size: 4 726 652 928 bytes
    Length: 1:06:19.040
    Total Bitrate: 9,50 Mbps
    Video: MPEG-4 AVC Video / 8788 kbps / 1080i / 25 fps / 16:9 / High Profile 4.1
    Audio: Russian / Dolby Digital Audio / 2.0 / 48 kHz / 192 kbps / DN -4dB

    ********************
    PLAYLIST: 00003.MPLS
    ********************


    code
    Total Video
    Title Codec Length Movie Size Disc Size Bitrate Bitrate Main Audio Track Secondary Audio Track
    ----- ------ ------- -------------- -------------- ------- ------- ------------------ ---------------------
    00003.MPLS AVC 0:55:32 3 958 130 688 24 349 306 996 9,50 8,79 DD AC3 2.0 192Kbps
    /code

    code

    DISC INFO:

    Disc Title: Ottepel_D2
    Disc Size: 24 349 306 996 bytes
    Protection: AACS
    BD-Java: No
    Extras: 50Hz Content
    BDInfo: 0.5.8

    PLAYLIST REPORT:

    Name: 00003.MPLS
    Length: 0:55:32.960 (h:m:s.ms)
    Size: 3 958 130 688 bytes
    Total Bitrate: 9,50 Mbps

    VIDEO:

    Codec Bitrate Deion
    ----- ------- -----------
    MPEG-4 AVC Video 8786 kbps 1080i / 25 fps / 16:9 / High Profile 4.1

    AUDIO:

    Codec Language Bitrate Deion
    ----- -------- ------- -----------
    Dolby Digital Audio Russian 192 kbps 2.0 / 48 kHz / 192 kbps / DN -4dB

    FILES:

    Name Time In Length Size Total Bitrate
    ---- ------- ------ ---- -------------
    00006.M2TS 0:00:00.000 0:55:32.960 3 958 130 688 9 501

    CHAPTERS:

    Number Time In Length Avg Video Rate Max 1-Sec Rate Max 1-Sec Time Max 5-Sec Rate Max 5-Sec Time Max 10Sec Rate Max 10Sec Time Avg Frame Size Max Frame Size Max Frame Time
    ------ ------- ------ -------------- -------------- -------------- -------------- -------------- -------------- -------------- -------------- -------------- --------------
    1 0:00:00.000 0:08:54.720 8 807 kbps 25 843 kbps 00:02:04.600 13 268 kbps 00:02:04.200 11 348 kbps 00:02:04.440 44 030 bytes 263 110 bytes 00:01:58.559
    2 0:08:54.720 0:08:25.800 8 801 kbps 13 674 kbps 00:14:33.440 10 538 kbps 00:14:32.600 9 417 kbps 00:12:38.720 44 003 bytes 234 313 bytes 00:14:22.440
    3 0:17:20.520 0:09:51.040 8 801 kbps 13 640 kbps 00:24:07.400 9 988 kbps 00:17:52.880 9 385 kbps 00:24:06.400 44 005 bytes 257 171 bytes 00:21:20.160
    4 0:27:11.560 0:11:20.639 8 799 kbps 13 871 kbps 00:27:38.880 10 157 kbps 00:27:36.920 9 394 kbps 00:29:34.360 43 994 bytes 262 256 bytes 00:32:03.040
    5 0:38:32.200 0:07:43.320 8 803 kbps 15 300 kbps 00:41:34.840 10 717 kbps 00:38:33.200 9 829 kbps 00:38:33.160 44 013 bytes 246 663 bytes 00:44:32.719
    6 0:46:15.520 0:09:17.440 8 705 kbps 14 307 kbps 00:48:36.080 11 055 kbps 00:53:11.120 10 012 kbps 00:53:10.800 43 530 bytes 246 778 bytes 00:50:03.200

    STREAM DIAGNOSTICS:

    File PID Type Codec Language Seconds Bitrate Bytes Packets
    ---- --- ---- ----- -------- -------------- -------------- ------------- -----
    00006.M2TS 4113 (0x1011) 0x1B AVC 3332,880 8 786 3 660 258 651 19 982 826
    00006.M2TS 4352 (0x1100) 0x81 AC3 rus (Russian) 3332,880 192 79 990 272 520 770

    /code


    QUICK SUMMARY:

    Disc Title: Ottepel_D2
    Disc Size: 24 349 306 996 bytes
    Protection: AACS
    BD-Java: No
    Playlist: 00003.MPLS
    Size: 3 958 130 688 bytes
    Length: 0:55:32.960
    Total Bitrate: 9,50 Mbps
    Video: MPEG-4 AVC Video / 8786 kbps / 1080i / 25 fps / 16:9 / High Profile 4.1
    Audio: Russian / Dolby Digital Audio / 2.0 / 48 kHz / 192 kbps / DN -4dB

    ********************
    PLAYLIST: 00000.MPLS
    ********************


    code
    Total Video
    Title Codec Length Movie Size Disc Size Bitrate Bitrate Main Audio Track Secondary Audio Track
    ----- ------ ------- -------------- -------------- ------- ------- ------------------ ---------------------
    00000.MPLS AVC 0:54:41 3 896 979 456 24 349 306 996 9,50 8,79 DD AC3 2.0 192Kbps
    /code

    code

    DISC INFO:

    Disc Title: Ottepel_D2
    Disc Size: 24 349 306 996 bytes
    Protection: AACS
    BD-Java: No
    Extras: 50Hz Content
    BDInfo: 0.5.8

    PLAYLIST REPORT:

    Name: 00000.MPLS
    Length: 0:54:41.560 (h:m:s.ms)
    Size: 3 896 979 456 bytes
    Total Bitrate: 9,50 Mbps

    VIDEO:

    Codec Bitrate Deion
    ----- ------- -----------
    MPEG-4 AVC Video 8785 kbps 1080i / 25 fps / 16:9 / High Profile 4.1

    AUDIO:

    Codec Language Bitrate Deion
    ----- -------- ------- -----------
    Dolby Digital Audio Russian 192 kbps 2.0 / 48 kHz / 192 kbps / DN -4dB

    FILES:

    Name Time In Length Size Total Bitrate
    ---- ------- ------ ---- -------------
    00000.M2TS 0:00:00.000 0:54:41.560 3 896 979 456 9 500

    CHAPTERS:

    Number Time In Length Avg Video Rate Max 1-Sec Rate Max 1-Sec Time Max 5-Sec Rate Max 5-Sec Time Max 10Sec Rate Max 10Sec Time Avg Frame Size Max Frame Size Max Frame Time
    ------ ------- ------ -------------- -------------- -------------- -------------- -------------- -------------- -------------- -------------- -------------- --------------
    1 0:00:00.000 0:08:01.079 8 806 kbps 29 205 kbps 00:02:04.200 12 562 kbps 00:02:04.200 10 664 kbps 00:02:04.200 44 026 bytes 263 038 bytes 00:01:58.559
    2 0:08:01.079 0:12:02.400 8 800 kbps 16 665 kbps 00:19:57.560 10 188 kbps 00:18:23.560 9 598 kbps 00:14:14.120 44 001 bytes 250 743 bytes 00:09:03.880
    3 0:20:03.480 0:11:20.920 8 802 kbps 14 086 kbps 00:25:09.880 10 227 kbps 00:25:09.560 9 443 kbps 00:25:55.400 44 011 bytes 261 755 bytes 00:29:18.400
    4 0:31:24.400 0:07:16.319 8 797 kbps 13 113 kbps 00:36:11.080 9 852 kbps 00:36:10.080 9 371 kbps 00:37:29.280 43 984 bytes 216 083 bytes 00:33:20.040
    5 0:38:40.719 0:05:42.920 8 802 kbps 22 540 kbps 00:41:31.840 11 593 kbps 00:41:28.880 10 360 kbps 00:41:22.840 44 009 bytes 259 358 bytes 00:41:31.880
    6 0:44:23.640 0:10:17.920 8 716 kbps 14 762 kbps 00:46:38.520 11 428 kbps 00:51:39.840 9 986 kbps 00:51:35.840 43 584 bytes 256 824 bytes 00:45:07.640

    STREAM DIAGNOSTICS:

    File PID Type Codec Language Seconds Bitrate Bytes Packets
    ---- --- ---- ----- -------- -------------- -------------- ------------- -----
    00000.M2TS 4113 (0x1011) 0x1B AVC 3281,480 8 786 3 603 710 128 19 674 090
    00000.M2TS 4352 (0x1100) 0x81 AC3 rus (Russian) 3281,480 192 78 756 864 512 740

    /code


    QUICK SUMMARY:

    Disc Title: Ottepel_D2
    Disc Size: 24 349 306 996 bytes
    Protection: AACS
    BD-Java: No
    Playlist: 00000.MPLS
    Size: 3 896 979 456 bytes
    Length: 0:54:41.560
    Total Bitrate: 9,50 Mbps
    Video: MPEG-4 AVC Video / 8785 kbps / 1080i / 25 fps / 16:9 / High Profile 4.1
    Audio: Russian / Dolby Digital Audio / 2.0 / 48 kHz / 192 kbps / DN -4dB

    ********************
    PLAYLIST: 00001.MPLS
    ********************


    code
    Total Video
    Title Codec Length Movie Size Disc Size Bitrate Bitrate Main Audio Track Secondary Audio Track
    ----- ------ ------- -------------- -------------- ------- ------- ------------------ ---------------------
    00001.MPLS AVC 0:54:28 3 880 925 184 24 349 306 996 9,50 8,79 DD AC3 2.0 192Kbps
    /code

    code

    DISC INFO:

    Disc Title: Ottepel_D2
    Disc Size: 24 349 306 996 bytes
    Protection: AACS
    BD-Java: No
    Extras: 50Hz Content
    BDInfo: 0.5.8

    PLAYLIST REPORT:

    Name: 00001.MPLS
    Length: 0:54:28.000 (h:m:s.ms)
    Size: 3 880 925 184 bytes
    Total Bitrate: 9,50 Mbps

    VIDEO:

    Codec Bitrate Deion
    ----- ------- -----------
    MPEG-4 AVC Video 8785 kbps 1080i / 25 fps / 16:9 / High Profile 4.1

    AUDIO:

    Codec Language Bitrate Deion
    ----- -------- ------- -----------
    Dolby Digital Audio Russian 192 kbps 2.0 / 48 kHz / 192 kbps / DN -4dB

    FILES:

    Name Time In Length Size Total Bitrate
    ---- ------- ------ ---- -------------
    00002.M2TS 0:00:00.000 0:54:28.000 3 880 925 184 9 500

    CHAPTERS:

    Number Time In Length Avg Video Rate Max 1-Sec Rate Max 1-Sec Time Max 5-Sec Rate Max 5-Sec Time Max 10Sec Rate Max 10Sec Time Avg Frame Size Max Frame Size Max Frame Time
    ------ ------- ------ -------------- -------------- -------------- -------------- -------------- -------------- -------------- -------------- -------------- --------------
    1 0:00:00.000 0:12:43.400 8 806 kbps 29 358 kbps 00:02:04.600 13 177 kbps 00:02:04.360 11 542 kbps 00:02:04.560 44 029 bytes 263 088 bytes 00:01:58.559
    2 0:12:43.400 0:09:03.319 8 801 kbps 13 698 kbps 00:19:46.520 10 474 kbps 00:21:41.119 9 476 kbps 00:14:40.400 44 007 bytes 246 904 bytes 00:16:41.640
    3 0:21:46.720 0:06:15.560 8 791 kbps 14 329 kbps 00:24:39.639 10 331 kbps 00:22:56.760 9 431 kbps 00:26:19.000 43 953 bytes 231 292 bytes 00:26:56.320
    4 0:28:02.280 0:08:44.959 8 805 kbps 14 037 kbps 00:30:59.760 10 094 kbps 00:35:05.000 9 468 kbps 00:30:59.720 44 024 bytes 212 004 bytes 00:29:50.719
    5 0:36:47.239 0:12:07.960 8 801 kbps 19 432 kbps 00:37:34.200 11 494 kbps 00:37:31.239 10 012 kbps 00:37:26.200 44 003 bytes 248 153 bytes 00:47:35.160
    6 0:48:55.200 0:05:32.800 8 641 kbps 21 366 kbps 00:51:48.960 12 624 kbps 00:51:47.920 10 653 kbps 00:51:41.920 43 212 bytes 259 966 bytes 00:51:02.280

    STREAM DIAGNOSTICS:

    File PID Type Codec Language Seconds Bitrate Bytes Packets
    ---- --- ---- ----- -------- -------------- -------------- ------------- -----
    00002.M2TS 4113 (0x1011) 0x1B AVC 3267,920 8 786 3 588 829 435 19 593 034
    00002.M2TS 4352 (0x1100) 0x81 AC3 rus (Russian) 3267,920 192 78 431 232 510 620

    /code


    QUICK SUMMARY:

    Disc Title: Ottepel_D2
    Disc Size: 24 349 306 996 bytes
    Protection: AACS
    BD-Java: No
    Playlist: 00001.MPLS
    Size: 3 880 925 184 bytes
    Length: 0:54:28.000
    Total Bitrate: 9,50 Mbps
    Video: MPEG-4 AVC Video / 8785 kbps / 1080i / 25 fps / 16:9 / High Profile 4.1
    Audio: Russian / Dolby Digital Audio / 2.0 / 48 kHz / 192 kbps / DN -4dB

    ********************
    PLAYLIST: 00002.MPLS
    ********************


    code
    Total Video
    Title Codec Length Movie Size Disc Size Bitrate Bitrate Main Audio Track Secondary Audio Track
    ----- ------ ------- -------------- -------------- ------- ------- ------------------ ---------------------
    00002.MPLS AVC 0:54:00 3 848 724 480 24 349 306 996 9,50 8,79 DD AC3 2.0 192Kbps
    /code

    code

    DISC INFO:

    Disc Title: Ottepel_D2
    Disc Size: 24 349 306 996 bytes
    Protection: AACS
    BD-Java: No
    Extras: 50Hz Content
    BDInfo: 0.5.8

    PLAYLIST REPORT:

    Name: 00002.MPLS
    Length: 0:54:00.920 (h:m:s.ms)
    Size: 3 848 724 480 bytes
    Total Bitrate: 9,50 Mbps

    VIDEO:

    Codec Bitrate Deion
    ----- ------- -----------
    MPEG-4 AVC Video 8785 kbps 1080i / 25 fps / 16:9 / High Profile 4.1

    AUDIO:

    Codec Language Bitrate Deion
    ----- -------- ------- -----------
    Dolby Digital Audio Russian 192 kbps 2.0 / 48 kHz / 192 kbps / DN -4dB

    FILES:

    Name Time In Length Size Total Bitrate
    ---- ------- ------ ---- -------------
    00004.M2TS 0:00:00.000 0:54:00.920 3 848 724 480 9 500

    CHAPTERS:

    Number Time In Length Avg Video Rate Max 1-Sec Rate Max 1-Sec Time Max 5-Sec Rate Max 5-Sec Time Max 10Sec Rate Max 10Sec Time Avg Frame Size Max Frame Size Max Frame Time
    ------ ------- ------ -------------- -------------- -------------- -------------- -------------- -------------- -------------- -------------- -------------- --------------
    1 0:00:00.000 0:10:03.559 8 805 kbps 29 991 kbps 00:02:04.440 13 892 kbps 00:02:04.200 11 015 kbps 00:02:04.200 44 022 bytes 263 120 bytes 00:01:58.559
    2 0:10:03.559 0:10:15.400 8 803 kbps 14 390 kbps 00:18:14.480 10 216 kbps 00:14:07.359 9 505 kbps 00:16:45.920 44 017 bytes 215 781 bytes 00:11:07.119
    3 0:20:18.960 0:07:52.279 8 802 kbps 20 958 kbps 00:20:19.960 14 081 kbps 00:20:19.680 9 818 kbps 00:24:11.760 44 008 bytes 266 680 bytes 00:23:57.080
    4 0:28:11.239 0:10:08.760 8 798 kbps 12 850 kbps 00:30:41.840 9 742 kbps 00:33:57.200 9 421 kbps 00:33:57.200 43 990 bytes 251 535 bytes 00:28:55.719
    5 0:38:20.000 0:09:07.960 8 799 kbps 14 483 kbps 00:46:44.400 10 304 kbps 00:46:17.880 9 445 kbps 00:46:44.480 43 997 bytes 248 178 bytes 00:46:22.840
    6 0:47:27.960 0:06:32.960 8 669 kbps 14 696 kbps 00:47:43.880 10 930 kbps 00:49:05.160 9 925 kbps 00:51:38.760 43 348 bytes 263 338 bytes 00:47:51.200

    STREAM DIAGNOSTICS:

    File PID Type Codec Language Seconds Bitrate Bytes Packets
    ---- --- ---- ----- -------- -------------- -------------- ------------- -----
    00004.M2TS 4113 (0x1011) 0x1B AVC 3240,840 8 786 3 559 089 134 19 430 471
    00004.M2TS 4352 (0x1100) 0x81 AC3 rus (Russian) 3240,840 192 77 781 504 506 390

    /code


    QUICK SUMMARY:

    Disc Title: Ottepel_D2
    Disc Size: 24 349 306 996 bytes
    Protection: AACS
    BD-Java: No
    Playlist: 00002.MPLS
    Size: 3 848 724 480 bytes
    Length: 0:54:00.920
    Total Bitrate: 9,50 Mbps
    Video: MPEG-4 AVC Video / 8785 kbps / 1080i / 25 fps / 16:9 / High Profile 4.1
    Audio: Russian / Dolby Digital Audio / 2.0 / 48 kHz / 192 kbps / DN -4dB

    ********************
    PLAYLIST: 00004.MPLS
    ********************


    code
    Total Video
    Title Codec Length Movie Size Disc Size Bitrate Bitrate Main Audio Track Secondary Audio Track
    ----- ------ ------- -------------- -------------- ------- ------- ------------------ ---------------------
    00004.MPLS AVC 0:53:16 3 796 322 304 24 349 306 996 9,50 8,79 DD AC3 2.0 192Kbps
    /code

    code

    DISC INFO:

    Disc Title: Ottepel_D2
    Disc Size: 24 349 306 996 bytes
    Protection: AACS
    BD-Java: No
    Extras: 50Hz Content
    BDInfo: 0.5.8

    PLAYLIST REPORT:

    Name: 00004.MPLS
    Length: 0:53:16.880 (h:m:s.ms)
    Size: 3 796 322 304 bytes
    Total Bitrate: 9,50 Mbps

    VIDEO:

    Codec Bitrate Deion
    ----- ------- -----------
    MPEG-4 AVC Video 8785 kbps 1080i / 25 fps / 16:9 / High Profile 4.1

    AUDIO:

    Codec Language Bitrate Deion
    ----- -------- ------- -----------
    Dolby Digital Audio Russian 192 kbps 2.0 / 48 kHz / 192 kbps / DN -4dB

    FILES:

    Name Time In Length Size Total Bitrate
    ---- ------- ------ ---- -------------
    00008.M2TS 0:00:00.000 0:53:16.880 3 796 322 304 9 500

    CHAPTERS:

    Number Time In Length Avg Video Rate Max 1-Sec Rate Max 1-Sec Time Max 5-Sec Rate Max 5-Sec Time Max 10Sec Rate Max 10Sec Time Avg Frame Size Max Frame Size Max Frame Time
    ------ ------- ------ -------------- -------------- -------------- -------------- -------------- -------------- -------------- -------------- -------------- --------------
    1 0:00:00.000 0:08:53.520 8 809 kbps 27 630 kbps 00:02:04.600 12 751 kbps 00:02:04.279 10 894 kbps 00:02:04.200 44 041 bytes 262 937 bytes 00:01:58.559
    2 0:08:53.520 0:09:10.839 8 796 kbps 18 803 kbps 00:12:52.800 11 893 kbps 00:14:09.960 10 293 kbps 00:14:04.960 43 979 bytes 264 297 bytes 00:15:42.119
    3 0:18:04.359 0:13:06.440 8 802 kbps 24 698 kbps 00:22:19.720 13 273 kbps 00:22:18.960 11 778 kbps 00:22:18.920 44 009 bytes 264 709 bytes 00:22:46.960
    4 0:31:10.800 0:06:51.359 8 801 kbps 15 355 kbps 00:35:19.200 10 439 kbps 00:35:55.880 9 679 kbps 00:35:05.120 44 003 bytes 254 090 bytes 00:33:32.000
    5 0:38:02.160 0:10:40.440 8 803 kbps 13 473 kbps 00:47:18.080 10 176 kbps 00:48:13.960 9 559 kbps 00:48:13.920 44 014 bytes 266 146 bytes 00:48:16.960
    6 0:48:42.600 0:04:34.280 8 605 kbps 14 428 kbps 00:49:07.480 10 370 kbps 00:50:55.120 9 657 kbps 00:50:55.000 43 034 bytes 251 555 bytes 00:50:36.600

    Скриншоты для ознакомления:



    Залил: avproh
    Размер скачиваемого торрента: 45.74 GB (49114573456 Bytes)

    Оттепель (2013) Blu-ray 1080i от New-Team | лицензия торрент скачать бесплатно
    загрузка...
    Рейтинг →
     (голосов: 1, оценка 3/5, голосовать можно 1 раз )

    Другие торренты по теме:

  • Оттепель (2013) HDTVRip от MediaClub скачать через торрент бесплатно
  • Оттепель (2013) SATRip скачать через торрент бесплатно
  • Оттепель (2013) HDTV 1080i от Generalfilm скачать через торрент бесплатно
  • Оттепель (2013) HDTVRip (720p) от Nikolspup скачать через торрент бесплатно
  • Оттепель (2013) HDTVRip | iPhone скачать через торрент бесплатно
  • Оттепель (2013) 4xDVD9 R5 от New-Team | лицензия
  • Оттепель (2008) DVDRip


    • Комментарии (0):

      Информация

      Информация

        Посетители, находящиеся в группе Гости, не могут оставлять комментарии в данной новости.

        ↓ Меню



        ↓ Опрос

        А Вы добавили сайт в закладки?
        Да
        Не


        Top 10 за месяц (Фильмы)