.
Авторизация | Регистрация
Хочешь лучшие торренты? Добавь свой email!
Добавить
» » Мастер тай-цзи / Man of Tai Chi (2013) BDRip 1080p | D, P | Лицензия скачать торрент бесплатно




    Мастер тай-цзи / Man of Tai Chi (2013) BDRip 1080p | D, P | Лицензия скачать торрент бесплатно

    Опубликовал: Админ | Дата: 27-02-2015, 11:10 | Просмотров: 181



    Детально о кино
    Русское название: Мастер тай-цзи
    Русское название в мировом прокате: Man of Tai Chi
    Создали в: 2013
    Категория жанра: Боевик
    Главный режиссер: Киану Ривз
    Актеры: Киану Ривз, Ико Ювайс, Тайгер Ху Чен, Карен Мок, Джереми Меринас, Стивен Дасс, Майкл Чан, Брахим Ачаббаке, Хелен Леклерк, Оушен Хоу

    Сюжет фильма: Пекин. Амбициозный юноша Чэнь Линь-Ху по кличке Тигр подрабатывает скромным курьером, но после работы он превращается в звезду боевых искусств, постепенно оттачивая свои навыки, следуя традициям Тайцзи Лин Кун. Обучившись размеренным и мирным движениям из Тай-цзи, он приспособил их для бойцовских соревнований. Донака Марк, скрываясь от гонконгской полиции, попадает в другой столичный мегаполис, где царит неразбериха и хаос, и открывает там подпольный бойцовский клуб, в котором реальные деньги можно заработать, побеждая противников в поединках без правил, транслируемых в прямом эфире богатым клиентам. Подыскивая новую звезду, Донака пытается приманить Тигра обещанием лёгкого заработка. Вхождение в этот мир выявляет самую тёмную сторону Чэнь Линь-Ху, но ему необходимы наличные. Его навыки помогают ему на ринге, но сможет ли он, сражаясь, сохранить в себе чистоту и добропорядочность?



    Снималось в: США, Китай, Гонконг, China Film Group Corporation, Company Films, Dalian Wanda Group, Village Roadshow Pictures
    Время просмотра: 01:45:14
    Перевод текста: Профессиональный (полное дублирование) - Лицензия; Многоголосый закадровый - Baibako

    Файл
    Качество фильма: BDRip 1080p
    Тип видео: MKV
    Информация о видео: MPEG4/AVC, 1920х796 (2.40:1), 9268 Кбит/с, 23.976 кадра/сек
    Информация о звуке 1: AC3, 6 каналов, 640 Кбит/с | Лицензия
    Информация о звуке 2: AC3, 6 каналов, 384 Кбит/с | Многоголосый закадровый - Baibako
    Информация о звуке 3: AC3, 6 каналов, 640 Кбит/с | Eng
    Субтитры: Русские, английские
    Навигация по главам: Есть
    Информация о видеоряд: CHD

    MediaInfo:
    Общее
    Уникальный идентификатор : 238866280575314746408762626311067580131 (0xB3B3F8E524883A4FB5AC6AB2F72CB6E3)
    Полное имя : Man of Tai Chi. (2013) BDRip 1080p.mkv
    Формат : Matroska
    Версия формата : Version 2
    Размер файла : 8,04 Гбайт
    Продолжительность : 1 ч. 45 м.
    Общий поток : 10,9 Мбит/сек
    Название фильма : Man of Tai Chi
    Дата кодирования : UTC 2014-04-10 15:30:12
    Программа кодирования : mkvmerge v5.8.0 (;No Sleep / Pillow;) built on Sep 2 2012 15:37:04
    Библиотека кодирования : libebml v1.2.3 libmatroska v1.3.0

    Видео
    Идентификатор : 1
    Формат : AVC
    Формат/Информация : Advanced Video Codec
    Профиль формата : High@L4.1
    Параметр CABAC формата : Да
    Параметр ReFrames формата : 5 кадров
    Идентификатор кодека : V_MPEG4/ISO/AVC
    Продолжительность : 1 ч. 45 м.
    Битрейт : 9268 Кбит/сек
    Ширина : 1920 пикселей
    Высота : 796 пикселей
    Соотношение сторон : 2,40:1
    Режим частоты кадров : Постоянный
    Частота кадров : 23,976 кадра/сек
    Цветовое пространство : YUV
    Субдискретизация насыщенности : 4:2:0
    Битовая глубина : 8 бит
    Тип развёртки : Прогрессивная
    Бит/(Пиксели*Кадры) : 0.253
    Размер потока : 6,65 Гбайт (83%)
    Библиотека кодирования : x264 core 138 r2356 a1d3d17
    Настройки программы : cabac=1 / ref=5 / deblock=1:-3:-3 / analyse=0x3:0x113 / me=umh / subme=10 / psy=1 / psy_rd=1.00:0.05 / mixed_ref=1 / me_range=32 / chroma_me=1 / trellis=2 / 8x8dct=1 / cqm=0 / deadzone=21,11 / fast_pskip=0 / chroma_qp_offset=-2 / threads=18 / lookahead_threads=1 / sliced_threads=0 / nr=0 / decimate=1 / interlaced=0 / bluray_compat=0 / constrained_intra=0 / bframes=4 / b_pyramid=2 / b_adapt=2 / b_bias=0 / direct=3 / weightb=1 / open_gop=0 / weightp=2 / keyint=250 / keyint_min=23 / scenecut=40 / intra_refresh=0 / rc=2pass / mbtree=0 / bitrate=9268 / ratetol=1.0 / qcomp=0.70 / qpmin=0 / qpmax=69 / qpstep=4 / cplxblur=20.0 / qblur=0.5 / ip_ratio=1.40 / pb_ratio=1.30 / aq=2:1.00
    Язык : English
    Default : Да
    Forced : Нет

    Аудио #1
    Идентификатор : 2
    Формат : AC-3
    Формат/Информация : Audio Coding 3
    Расширение режима : CM (complete main)
    Параметр Endianness формата : Big
    Идентификатор кодека : A_AC3
    Продолжительность : 1 ч. 45 м.
    Вид битрейта : Постоянный
    Битрейт : 640 Кбит/сек
    Каналы : 6 каналов
    Расположение каналов : Front: L C R, Side: L R, LFE
    Частота : 48,0 КГц
    Битовая глубина : 16 бит
    Метод сжатия : С потерями
    Размер потока : 482 Мбайт (6%)
    Заголовок : Rus | Дубляж Blu-Ray CEE
    Язык : Russian
    Default : Да
    Forced : Нет

    Аудио #2
    Идентификатор : 3
    Формат : AC-3
    Формат/Информация : Audio Coding 3
    Расширение режима : CM (complete main)
    Параметр Endianness формата : Big
    Идентификатор кодека : A_AC3
    Продолжительность : 1 ч. 45 м.
    Вид битрейта : Постоянный
    Битрейт : 384 Кбит/сек
    Каналы : 6 каналов
    Расположение каналов : Front: L C R, Side: L R, LFE
    Частота : 48,0 КГц
    Битовая глубина : 16 бит
    Метод сжатия : С потерями
    Размер потока : 289 Мбайт (4%)
    Заголовок : Baibako
    Язык : Russian
    Default : Нет
    Forced : Нет

    Аудио #3
    Идентификатор : 4
    Формат : AC-3
    Формат/Информация : Audio Coding 3
    Расширение режима : CM (complete main)
    Параметр Endianness формата : Big
    Идентификатор кодека : A_AC3
    Продолжительность : 1 ч. 45 м.
    Вид битрейта : Постоянный
    Битрейт : 640 Кбит/сек
    Каналы : 6 каналов
    Расположение каналов : Front: L C R, Side: L R, LFE
    Частота : 48,0 КГц
    Битовая глубина : 16 бит
    Метод сжатия : С потерями
    Размер потока : 482 Мбайт (6%)
    Заголовок : Eng | Blu-Ray CEE
    Язык : English
    Default : Нет
    Forced : Нет

    Текст #1
    Идентификатор : 5
    Формат : UTF-8
    Идентификатор кодека : S_TEXT/UTF8
    Идентификатор кодека/Информация : UTF-8 Plain Text
    Заголовок : Rus
    Язык : Russian
    Default : Нет
    Forced : Нет

    Текст #2
    Идентификатор : 6
    Формат : UTF-8
    Идентификатор кодека : S_TEXT/UTF8
    Идентификатор кодека/Информация : UTF-8 Plain Text
    Заголовок : Eng
    Язык : English
    Default : Нет
    Forced : Нет

    Меню
    00:00:00.000 : en:Chapter 1
    00:04:07.664 : en:Chapter 2
    00:09:17.182 : en:Chapter 3
    00:15:33.391 : en:Chapter 4
    00:20:25.558 : en:Chapter 5
    00:27:11.296 : en:Chapter 6
    00:33:31.176 : en:Chapter 7
    00:39:35.957 : en:Chapter 8
    00:46:23.990 : en:Chapter 9
    00:54:39.985 : en:Chapter 10
    01:02:01.343 : en:Chapter 11
    01:10:25.221 : en:Chapter 12
    01:16:37.927 : en:Chapter 13
    01:20:23.652 : en:Chapter 14
    01:27:12.477 : en:Chapter 15
    01:37:58.247 : en:Chapter 16

    Скриншоты для ознакомления:


    Релиз подготовил:
    Размер скачиваемого торрента: 8.04 GB (8630318410 Bytes)

    Мастер тай-цзи / Man of Tai Chi (2013) BDRip 1080p | D, P | Лицензия торрент скачать бесплатно
    загрузка...
    Рейтинг →
     (голосов: 1, оценка 3/5, голосовать можно 1 раз )

    Другие торренты по теме:

  • Мастер тай-чи / Мастер тай-цзи / Man of Tai Chi (2013) DVDScr от BTT-TEAM
  • Мастер тай-чи / Мастер тай-цзи / Man of Tai Chi (2013) WEB-DLRip | L1 скачать через торрент бесплатно
  • Мастер тай-чи / Мастер тай-цзи / Man of Tai Chi (2013) WEB-DLRip от BitTracker скачать через торрент бесплатно
  • Мастер тай-чи / Мастер тай-цзи / Man of Tai Chi (2013) WEB-DL 720p от MULTIBITS | P, L скачать через торрент бесплатно
  • Мастер тай-чи / Мастер тай-цзи / Man of Tai Chi (2013) HDRip от Scarabey
  • Мастер тай-чи / Мастер тай-цзи / Man of Tai Chi (2013) HDRip от Scarabey | D | iTunes
  • Мастер тай-цзи / Man of Tai Chi (2013) DVDScr | L1
  • Мастер тай-цзи / Man of Tai Chi (2013) HDTVRip | L1


    • Комментарии (0):

      Информация

      Информация

        Посетители, находящиеся в группе Гости, не могут оставлять комментарии в данной новости.

        ↓ Меню



        ↓ Опрос

        А Вы добавили сайт в закладки?
        Да
        Не


        Top 10 за месяц (Фильмы)