.
Авторизация | Регистрация
Хочешь лучшие торренты? Добавь свой email!
Добавить
» » Назад в будущее 2 / Back to the Future 2 (1989) BDRip от New-Team | D скачать торрент бесплатно




    Назад в будущее 2 / Back to the Future 2 (1989) BDRip от New-Team | D скачать торрент бесплатно

    Опубликовал: Админ | Дата: 27-02-2015, 11:10 | Просмотров: 177


    Снималось в: США
    Создали в: Amblin Entertainment, U-Drive Productions, Universal Pictures
    Категория жанра: фантастика, боевик, комедия, приключения, семейный
    Создали в: 1989
    Время просмотра: 01:47:59

    Перевод текста: Профессиональный (полное дублирование)
    Оригинальная аудиодорожка: нет
    Субтитры подготовлены: русский, английский

    Главный режиссер: Роберт Земекис / Robert Zemeckis

    Актеры:
    Майкл Дж. Фокс, Кристофер Ллойд, Лиа Томпсон, Томас Ф. Уилсон, Элизабет Шу, Джеймс Толкан, Джеффри Вайсман, Кэйси Семашко, Билли Зейн, Дж.Дж. Коэн...

    Сюжет:
    Продолжение фантастической истории о приключениях американского подростка во времени. На этот раз с помощью модернизированной Доком машины времени Марти из 80-х попадает в будущее.
    Дети Марти в беде, и их надо выручать. Приходится повозиться со злодеем…




    Исходник: Blu-ray 1080p
    Тип релиза: BDRip
    Контейнер: AVI

    Информация о видео: 720x384 (1,85:1), 23,976 fps, XviD ~ 1475 kbps avg, 0.223 bit/pixel
    Информация о звуке: 48 kHz, Dolby Digital AC3 5.1, 448 kbps
    Субтитры: SoftSub (srt)

    Раздача от:
    MediaInfo

    Общее
    Полное имя : Nazad.v.budushhee.2.1989.BDRip_New-team_by_AVP_Studio.avi
    Формат : AVI
    Формат/Информация : Audio Video Interleave
    Размер файла : 1,46 Гбайт
    Продолжительность : 1 ч. 47 м.
    Общий поток : 1932 Кбит/сек
    Программа кодирования : VirtualDubModRus 1.5.10.2 (build 2542/release)
    Библиотека кодирования : VirtualDubMod build 2542/release

    Видео
    Идентификатор : 0
    Формат : MPEG-4 Visual
    Профиль формата : Advanced Simple@L5
    Параметр BVOP формата : 1
    Параметр QPel формата : Нет
    Параметр GMC формата : Без точки перехода
    Параметр матрицы формата : Выборочная
    Идентификатор кодека : XVID
    Идентификатор кодека/Подсказка : XviD
    Продолжительность : 1 ч. 47 м.
    Битрейт : 1475 Кбит/сек
    Ширина : 720 пикселей
    Высота : 384 пикселя
    Соотношение сторон : 1,85:1
    Частота кадров : 23,976 кадра/сек
    Цветовое пространство : YUV
    Субдискретизация насыщенности : 4:2:0
    Битовая глубина : 8 бит
    Тип развёртки : Прогрессивная
    Метод сжатия : С потерями
    Бит/(Пиксели*Кадры) : 0.223
    Размер потока : 1,11 Гбайт (76%)
    Библиотека кодирования : XviD 73

    Аудио
    Идентификатор : 1
    Формат : AC-3
    Формат/Информация : Audio Coding 3
    Расширение режима : CM (complete main)
    Параметр Endianness формата : Big
    Идентификатор кодека : 2000
    Продолжительность : 1 ч. 47 м.
    Вид битрейта : Постоянный
    Битрейт : 448 Кбит/сек
    Каналы : 6 каналов
    Расположение каналов : Front: L C R, Side: L R, LFE
    Частота : 48,0 КГц
    Битовая глубина : 16 бит
    Метод сжатия : С потерями
    Размер потока : 346 Мбайт (23%)
    Выравнивание : Разделение по промежуткам
    Продолжительность промежутка : 42 мс. (1,00 видеокадр)
    Время предзагрузки промежутка : 500 мс

    Скриншоты для ознакомления



    Залил: AVPStudio
    Размер скачиваемого торрента: 1.46 GB (1564947018 Bytes)

    Назад в будущее 2 / Back to the Future 2 (1989) BDRip от New-Team | D торрент скачать бесплатно
    загрузка...
    Рейтинг →
     (голосов: 1, оценка 3/5, голосовать можно 1 раз )

    Другие торренты по теме:

  • Назад в будущее: Мультсериал / Back to the Future: The Animated Series (1991) SATRemux
  • Назад в будущее: Трилогия / Back to the Future: Trilogy (1985-1990) BDRip-AVC | D, P, A
  • Индюки: Назад в будущее (2013)
  • Индюки: Назад в будущее / Free Birds (2013) DVDRip | Лицензия
  • Индюки: Назад в будущее / Free Birds (2013) DVD5 | Лицензия
  • Индюки: Назад в будущее / Free Birds (2013) DVDRip-AVC | Лицензия скачать через торрент бесплатно
  • Индюки: Назад в будущее / Free Birds (2013) DVDRip-HEVC от FREEISLAND скачать через торрент бесплатно
  • Индюки: Назад в будущее / Free Birds (2013) BDRip 1080p | Лицензия скачать через торрент бесплатно


    • Комментарии (0):

      Информация

      Информация

        Посетители, находящиеся в группе Гости, не могут оставлять комментарии в данной новости.

        ↓ Меню



        ↓ Опрос

        А Вы добавили сайт в закладки?
        Да
        Не


        Top 10 за месяц (Фильмы)