.
Авторизация | Регистрация
Хочешь лучшие торренты? Добавь свой email!
Добавить
» » Войны Света / Daybreakers (2009) BDRip-AVC | Лицензия скачать через торрент бесплатно




    Войны Света / Daybreakers (2009) BDRip-AVC | Лицензия скачать через торрент бесплатно

    Опубликовал: Админ | Дата: 27-02-2015, 11:10 | Просмотров: 345



    Детально о кино
    Русское название: Войны Света
    Русское название в мировом прокате: Daybreakers
    Создали в: 2009
    Категория жанра: ужасы, фантастика, боевик, триллер, драма
    Главный режиссер: Майкл Спириг, Питер Спириг
    Актеры: Этан Хоук, Гвинет Пэлтроу, Аллан Тодд, Питер Велман, Дэмиен Гарви, Мишель Эткинсон, Джек Брэдфорд, Крис Браун

    Сюжет фильма: В 2019 году самым ценным природным ресурсом будут... люди
    Привычный нам мир полностью изменился, раса вампиров захватила всю планету и разрослась неимоверно, власти (состоящие исключительно из глав кланов вампиров) бьют тревогу, ведь человеческих особей по всей планете остается максимум на полтора месяца, после людей не останется, а вместе с их исчезновением, пропадет калорийная пища для вампиров и их существование тоже встанет под знак вопроса. Ученые пытаются изобрести искусственный заменитель крови, но его качество желает быть лучше. Человеческие ученые же, выработали сыворотку, способную превращать вампира в обычного человека, но прячась в бункере переживают и хотят объявить о своем открытии общественности. Может быть два варианта развития, вампиры соглашаться и все раса превратится в человеческую, или же вакцину будут использоваться частично, чтобы часть вампиров превращать в людей, а после употреблять их кровь в качестве питания.




    Снималось в: Австралия, США
    Киностудия: Australian Film Finance Corporation (AFFC), Lionsgate, Pictures in Paradise Pty. Ltd.
    Время просмотра: 01:37:48
    Перевод текста: Дублированный Лицензия

    Файл
    Кодек для видео: h.264
    Качество фильма: BDRip-AVC
    Информация о видео: AVC, 1024 x 436, ~1813 kbps
    Информация о звуке: AC-3, 6 ch, 448 kbps
    Субтитры: нет

    Семпл

    Скриншоты для ознакомления
    MI
    Общее
    Уникальный идентификатор : 168348648403719580577546155723716462494 (0x7EA6C532C2870C1E037BA147C20E879E)
    Полное имя : H:Войны Света Daybreakers (2009)Daybreakers.2009.BDRip-AVC.mkv
    Формат : Matroska
    Версия формата : Version 2
    Размер файла : 1,58 Гбайт
    Продолжительность : 1 ч. 37 м.
    Режим общего битрейта : Переменный
    Общий поток : 2307 Кбит/сек
    Программа кодирования : Lavf51.12.1
    Библиотека кодирования : Lavf51.12.1

    Видео
    Идентификатор : 1
    Формат : AVC
    Формат/Информация : Advanced Video Codec
    Профиль формата : Baseline@L3.1
    Параметр CABAC формата : Нет
    Параметр ReFrames формата : 1 кадр
    Параметр GOP формата : M=1, N=12
    Идентификатор кодека : V_MPEG4/ISO/AVC
    Продолжительность : 1 ч. 37 м.
    Вид битрейта : Переменный
    Битрейт : 1813 Кбит/сек
    Максимальный битрейт : 2790 Кбит/сек
    Ширина : 1024 пикселя
    Высота : 436 пикселей
    Соотношение сторон : 2,35:1
    Соотношение сторон в оригинале : 2,35:1
    Режим частоты кадров : Постоянный
    Частота кадров : 23,976 кадра/сек
    Частота кадров в оригинале : 24,000 кадра/сек
    Цветовое пространство : YUV
    Субдискретизация насыщенности : 4:2:0
    Битовая глубина : 8 бит
    Тип развёртки : Прогрессивная
    Бит/(Пиксели*Кадры) : 0.169
    Размер потока : 1,24 Гбайт (79%)
    Язык : English
    Default : Да
    Forced : Нет

    Аудио
    Идентификатор : 2
    Формат : AC-3
    Формат/Информация : Audio Coding 3
    Расширение режима : CM (complete main)
    Параметр Endianness формата : Big
    Идентификатор кодека : A_AC3
    Продолжительность : 1 ч. 37 м.
    Вид битрейта : Постоянный
    Битрейт : 448 Кбит/сек
    Каналы : 6 каналов
    Расположение каналов : Front: L C R, Side: L R, LFE
    Частота : 48,0 КГц
    Битовая глубина : 16 бит
    Метод сжатия : С потерями
    Размер потока : 313 Мбайт (19%)
    Язык : Russian
    Default : Да
    Forced : Нет

    Размер скачиваемого торрента: 1.58 GB (1692204198 Bytes)

    Войны Света / Daybreakers (2009) BDRip-AVC | Лицензия скачать через торрент бесплатно
    загрузка...
    Рейтинг →
     (голосов: 1, оценка 3/5, голосовать можно 1 раз )

    Другие торренты по теме:

  • Звездные Войны: Войны Клонов / Star Wars: The Clone Wars (2012) WEB-DL 400p | LostFilm
  • Звездные Войны: Войны клонов / Star Wars: The Clone Wars (2012-2013) WEB-DLRip 720p от MediaClub
  • Звездные Войны: Войны клонов / Star Wars: The Clone Wars (2014) HDTV 720p | Galaxy-Media скачать через торрент бесплатно
  • Звездные войны: Войны клонов / Star Wars: The Clone Wars (2014) HDTVRip скачать через торрент бесплатно
  • Звездные войны: Войны Клонов / Star Wars: The Clone Wars (2014) WEBRip | LostFilm скачать через торрент бесплатно
  • Звездные войны: Войны клонов / Star Wars: The Clone Wars (2014) WEB-DLRip 720p от MediaClub | Lostfilm скачать через торрент бесплатно
  • Звездные войны: Войны Клонов / Star Wars: The Clone Wars (2008) BDRip-AVC от ExKinoRay скачать через торрент бесплатно
  • Звездные войны: Войны клонов / Star Wars: The Clone Wars (2014) WEB-DLRip 720p от MediaClub | Lostfilm скачать через торрент бесплатно


    • Комментарии (0):

      Информация

      Информация

        Посетители, находящиеся в группе Гости, не могут оставлять комментарии в данной новости.

        ↓ Меню



        ↓ Опрос

        А Вы добавили сайт в закладки?
        Да
        Не


        Top 10 за месяц (Фильмы)