.
Авторизация | Регистрация
Хочешь лучшие торренты? Добавь свой email!
Добавить
» » Сержант Калень / Ogniomistrz Kalen (1961) DVDRip от New-Team | D скачать через торрент бесплатно




    Сержант Калень / Ogniomistrz Kalen (1961) DVDRip от New-Team | D скачать через торрент бесплатно

    Опубликовал: Админ | Дата: 27-02-2015, 11:10 | Просмотров: 300


    Создали в: 1961
    Снималось в: Польша
    Киностудия: Zespol Filmowy Studio
    Время просмотра: 01:34:07

    Перевод текста: Профессиональный (полное дублирование)
    Субтитры: нет
    Категория жанра: военный
    Оригинальная аудиодорожка: нет

    Главный режиссер: Эва Петельска / Ewa Petelska, Чеслав Петельский / Czeslaw Petelscy

    Актеры: Веслав Голас, Зофья Слабошовска, Леон Немчик, Юзеф Костецкий, Юзеф Лодыньский, Здзислав Карчевский, Януш Клосиньский, Тадеуш Теолорчик, Януш Страхоцкий, Сильвестр Пшедвоевский...
    Дублировали: Владимир Прохоров, Лариса Матвеенко, Юрий Чекулаев, Юрий Боголюбов, Андрей Файт...

    Сюжет: По мотивам популярной повести Яна Герхарда. Действие происходит в 1946 году, на территории Польши, где действовали различные националистические банды, в том числе и бежавшие с территории Советского Союза бандеровцы, отличавшиеся особой жестокостью по отношению к польским патриотам.
    Сержант Войска Польского Калень постоянно попадает в смертельно-опасные ситуации, но природная смекалка и везение позволяли ему всегда выходить сухим из воды. Но однажды удача покидает его…



    Исходник: DVD5 R5
    Тип релиза: DVDRip
    Контейнер: AVI

    Информация о видео: 672x368 (16:9), 25 fps, XviD ~ 970 kbps avg, 0.157 bit/pixel
    Информация о звуке: 48 kHz, MP3, 2 ch, 128.00 kbps

    Раздача от:
    MediaInfo

    Общее
    Полное имя : Kalen.1961.D.DVDRip.745_Youtracker_by_AVP Studio.avi
    Формат : AVI
    Формат/Информация : Audio Video Interleave
    Размер файла : 746 Мбайт
    Продолжительность : 1 ч. 34 м.
    Общий поток : 1108 Кбит/сек
    Программа кодирования : VirtualDubMod 1.5.10.3 | www.virtualdub-fr.org || (build 2550/release)
    Библиотека кодирования : VirtualDubMod build 2550/release

    Видео
    Идентификатор : 0
    Формат : MPEG-4 Visual
    Профиль формата : Advanced Simple@L5
    Параметр BVOP формата : 1
    Параметр QPel формата : Нет
    Параметр GMC формата : Без точки перехода
    Параметр матрицы формата : Выборочная
    Идентификатор кодека : XVID
    Идентификатор кодека/Подсказка : XviD
    Продолжительность : 1 ч. 34 м.
    Битрейт : 970 Кбит/сек
    Ширина : 672 пикселя
    Высота : 368 пикселей
    Соотношение сторон : 16:9
    Частота кадров : 25,000 кадров/сек
    Цветовое пространство : YUV
    Субдискретизация насыщенности : 4:2:0
    Битовая глубина : 8 бит
    Тип развёртки : Прогрессивная
    Метод сжатия : С потерями
    Бит/(Пиксели*Кадры) : 0.157
    Размер потока : 653 Мбайт (88%)
    Библиотека кодирования : XviD 65

    Аудио
    Идентификатор : 1
    Формат : MPEG Audio
    Версия формата : Version 1
    Профиль формата : Layer 3
    Идентификатор кодека : 55
    Идентификатор кодека/Подсказка : MP3
    Продолжительность : 1 ч. 34 м.
    Вид битрейта : Постоянный
    Битрейт : 128 Кбит/сек
    Каналы : 2 канала
    Частота : 48,0 КГц
    Метод сжатия : С потерями
    Размер потока : 86,2 Мбайт (12%)
    Выравнивание : Соединение по промежуткам
    Продолжительность промежутка : 40 мс. (1,00 видеокадр)
    Время предзагрузки промежутка : 504 мс.
    Библиотека кодирования : L3.99r
    Залил: AVPStudio
    Размер скачиваемого торрента: 745.62 MB (781840384 Bytes)


    Сержант Калень / Ogniomistrz Kalen (1961) DVDRip от New-Team | D скачать через торрент бесплатно
    загрузка...
    Рейтинг →
     (голосов: 1, оценка 5/5, голосовать можно 1 раз )

    Другие торренты по теме:

  • Сержант Калень / Ogniomistrz Kalen (1961) DVD5 от Youtracker | D | лицензия


    • Комментарии (0):

      Информация

      Информация

        Посетители, находящиеся в группе Гости, не могут оставлять комментарии в данной новости.

        ↓ Меню



        ↓ Опрос

        А Вы добавили сайт в закладки?
        Да
        Не


        Top 10 за месяц (Фильмы)