.
Авторизация | Регистрация
Хочешь лучшие торренты? Добавь свой email!
Добавить
» » Король обезьян / The Monkey King (2014) BDRip-AVC | L1 скачать через торрент бесплатно




    Король обезьян / The Monkey King (2014) BDRip-AVC | L1 скачать через торрент бесплатно

    Опубликовал: Админ | Дата: 27-02-2015, 11:10 | Просмотров: 288



    Детально о кино
    Русское название: Король обезьян
    Русское название в мировом прокате: The Monkey King
    Создали в: 2014
    Категория жанра: боевик, приключения, семейный
    Главный режиссер: Поу-Сои Чинг
    Актеры: Донни Йен, Чоу Юнь-Фат, Аарон Квок, Итянь Хай, Питер Хо, Джо Чэнь, Ся Цзытун, Келли Чен, Сиу-Фай Чунг, Кэлвин Чэн Ка-Синь

    Сюжет фильма:
    Этот фильм рассказывает старую буддистскую легенду, о короле обезьян, Сунь Уконе, который был рожден от небесного камня, обладавшего сверхъестественными способностями. Подняв мятеж против небес Сунь, ставший обладателем потрясающей силы, вступает в схватку с целыми армиями божеств и демонов, но проигрывает, и оказывается заточенным под горой на долгие пятьсот лет. Так начинается следующий этап его жизни...




    Снималось в: Китай, Гонконг, США
    Киностудия: Filmko Pictures, Mandarin Films Co. Ltd., Soundscape Media...
    Время просмотра: 01:59:16
    Перевод текста: Любительское (одноголосое) Виктор Береговых

    Файл
    Кодек для видео: h.264
    Качество фильма: BDRip-AVC
    Информация о видео: AVC, 1024 x 432, ~1814 kb/s
    Информация о звуке: Русский: AC3, 192 kb/s (2 ch) / Китайский: AC3, 448 kb/s (6 ch)
    Субтитры: Английский

    Семпл

    Скриншоты для ознакомления
    MI
    Общее
    Уникальный идентификатор : 168348648403719580577546155723716462494 (0x7EA6C532C2870C1E037BA147C20E879E)
    Полное имя : H:Король обезьян The Monkey KingThe.Monkey.King.2014.BDRip-AVC.mkv
    Формат : Matroska
    Версия формата : Version 2
    Размер файла : 2,09 Гбайт
    Продолжительность : 1 ч. 59 м.
    Режим общего битрейта : Переменный
    Общий поток : 2504 Кбит/сек
    Программа кодирования : Lavf51.12.1
    Библиотека кодирования : Lavf51.12.1

    Видео
    Идентификатор : 1
    Формат : AVC
    Формат/Информация : Advanced Video Codec
    Профиль формата : Baseline@L3.1
    Параметр CABAC формата : Нет
    Параметр ReFrames формата : 1 кадр
    Параметр GOP формата : M=1, N=12
    Идентификатор кодека : V_MPEG4/ISO/AVC
    Продолжительность : 1 ч. 59 м.
    Вид битрейта : Переменный
    Битрейт : 1814 Кбит/сек
    Максимальный битрейт : 2790 Кбит/сек
    Ширина : 1024 пикселя
    Высота : 432 пикселя
    Соотношение сторон : 2,40:1
    Режим частоты кадров : Постоянный
    Частота кадров : 23,976 кадра/сек
    Частота кадров в оригинале : 24,000 кадра/сек
    Цветовое пространство : YUV
    Субдискретизация насыщенности : 4:2:0
    Битовая глубина : 8 бит
    Тип развёртки : Прогрессивная
    Бит/(Пиксели*Кадры) : 0.171
    Размер потока : 1,51 Гбайт (72%)
    Язык : Chinese
    Default : Да
    Forced : Нет

    Аудио #1
    Идентификатор : 2
    Формат : AC-3
    Формат/Информация : Audio Coding 3
    Расширение режима : CM (complete main)
    Параметр Endianness формата : Big
    Идентификатор кодека : A_AC3
    Продолжительность : 1 ч. 59 м.
    Вид битрейта : Постоянный
    Битрейт : 192 Кбит/сек
    Каналы : 2 канала
    Расположение каналов : Front: L R
    Частота : 48,0 КГц
    Битовая глубина : 16 бит
    Метод сжатия : С потерями
    Размер потока : 164 Мбайт (8%)
    Язык : Russian
    Default : Да
    Forced : Нет

    Аудио #2
    Идентификатор : 4
    Формат : AC-3
    Формат/Информация : Audio Coding 3
    Расширение режима : CM (complete main)
    Параметр Endianness формата : Big
    Идентификатор кодека : A_AC3
    Продолжительность : 1 ч. 59 м.
    Вид битрейта : Постоянный
    Битрейт : 448 Кбит/сек
    Каналы : 6 каналов
    Расположение каналов : Front: L C R, Side: L R, LFE
    Частота : 48,0 КГц
    Битовая глубина : 16 бит
    Метод сжатия : С потерями
    Размер потока : 382 Мбайт (18%)
    Язык : Chinese
    Default : Да
    Forced : Нет

    Текст
    Идентификатор : 3
    Формат : UTF-8
    Идентификатор кодека : S_TEXT/UTF8
    Идентификатор кодека/Информация : UTF-8 Plain Text
    Язык : English
    Default : Да
    Forced : Нет

    Размер скачиваемого торрента: 2.09 GB (2239817722 Bytes)

    Король обезьян / The Monkey King (2014) BDRip-AVC | L1 скачать через торрент бесплатно
    загрузка...
    Рейтинг →
     (голосов: 1, оценка 3/5, голосовать можно 1 раз )

    Другие торренты по теме:

  • Король обезьян / Царь Обезьян / The Monkey King / Xi you ji: Da nao tian gong (2014) HDRip-AVC от BTT-TEAM и SOUND-GROUP скачать через торрент бесплатно
  • Царь обезьян: Начало легенды / Король обезьян 2 / Xi you ji zhi: Sun Wukong san da Baigu Jing (2016) HDRip от torrentfilm | L2
  • Король обезьян / The Monkey King: Wreaking Havoc in Heavenly Palace (2014) BDRip 1080p от CINEMANIA | L1
  • Король обезьян / The Monkey King: Wreaking Havoc in Heavenly Palace (2014) BDRip 720p от CINEMANIA | L1
  • Король обезьян / The Monkey King (2014) HDRip | L1
  • Король обезьян / The Monkey King (2014) WEBRip | L1
  • Король обезьян / The Monkey King: Wreaking Havoc in Heavenly Palace (2014) BDRip 1080p от CINEMANIA | L2, L1 скачать через торрент бесплатно
  • Король обезьян / The Monkey King: Wreaking Havoc in Heavenly Palace (2014) BDRip 720p от CINEMANIA | L2, L1 скачать через торрент бесплатно


    • Комментарии (0):

      Информация

      Информация

        Посетители, находящиеся в группе Гости, не могут оставлять комментарии в данной новости.

        ↓ Меню



        ↓ Опрос

        А Вы добавили сайт в закладки?
        Да
        Не


        Top 10 за месяц (Фильмы)