.
Авторизация | Регистрация
Хочешь лучшие торренты? Добавь свой email!
Добавить
» » Лекарство / The Cure / Virus Outbreak: Lautloser Killer (2014) BDRip-AVC | Чистый звук скачать через торрент бесплатно




    Лекарство / The Cure / Virus Outbreak: Lautloser Killer (2014) BDRip-AVC | Чистый звук скачать через торрент бесплатно

    Опубликовал: Админ | Дата: 27-02-2015, 11:10 | Просмотров: 170



    Детально о кино
    Русское название: Лекарство
    Русское название в мировом прокате: The Cure / Virus Outbreak: Lautloser Killer
    Создали в: 2014
    Категория жанра: фантастика, боевик, триллер
    Главный режиссер: Дэвид Гулд
    Актеры: Джино Асеведо, Давид Аллен, Чичард Андерсон, Рене Ауэр, Джон Бах, Бендж Берриман, Мелисса Билингтон, Натали Болтт

    Сюжет фильма: Лечение от рака никогда не должно появиться...
    Молодые ученые Райан и Бет, усердно трудятся над созданием лекарства, которое очень важно для человечества. По началу у препарата было много побочных эффектов, но они нашли способ убрать негативные последствия. Руководитель фармацевтической корпорации, преследует свою цель, побыстрее получить невероятную прибыль, без дополнительных тестов, мечтает запустить препарат в массовое производство...




    Снималось в: США, Новая Зеландия
    Киностудия: David Gould Studios
    Время просмотра: 01:29:29
    Перевод текста: Профессиональное (многоголосое) Чистый звук

    Файл
    Кодек для видео: h.264
    Качество фильма: BDRip-AVC
    Информация о видео: AVC, 1024 x 576, ~1808 kbps
    Информация о звуке: Русский: AC-3, 2 ch, 192 kbps / Английский, Немецкий: AC-3, 6 ch, 448 kbps
    Субтитры: нет

    Семпл

    Скриншоты для ознакомления
    MI
    Общее
    Уникальный идентификатор : 168348648403719580577546155723716462494 (0x7EA6C532C2870C1E037BA147C20E879E)
    Полное имя : H:Лекарство The Cure Virus Outbreak Lautloser Killer (2014)The.Cure.2014.BDRip-AVC.mkv
    Формат : Matroska
    Версия формата : Version 2
    Размер файла : 1,85 Гбайт
    Продолжительность : 1 ч. 29 м.
    Режим общего битрейта : Переменный
    Общий поток : 2955 Кбит/сек
    Программа кодирования : Lavf51.12.1
    Библиотека кодирования : Lavf51.12.1

    Видео
    Идентификатор : 1
    Формат : AVC
    Формат/Информация : Advanced Video Codec
    Профиль формата : Baseline@L3.1
    Параметр CABAC формата : Нет
    Параметр ReFrames формата : 1 кадр
    Параметр GOP формата : M=1, N=12
    Идентификатор кодека : V_MPEG4/ISO/AVC
    Продолжительность : 1 ч. 29 м.
    Вид битрейта : Переменный
    Битрейт : 1808 Кбит/сек
    Максимальный битрейт : 2790 Кбит/сек
    Ширина : 1024 пикселя
    Высота : 576 пикселей
    Соотношение сторон : 16:9
    Режим частоты кадров : Постоянный
    Частота кадров : 23,976 кадра/сек
    Частота кадров в оригинале : 24,000 кадра/сек
    Цветовое пространство : YUV
    Субдискретизация насыщенности : 4:2:0
    Битовая глубина : 8 бит
    Тип развёртки : Прогрессивная
    Бит/(Пиксели*Кадры) : 0.128
    Размер потока : 1,13 Гбайт (61%)
    Язык : English
    Default : Да
    Forced : Нет

    Аудио #1
    Идентификатор : 2
    Формат : AC-3
    Формат/Информация : Audio Coding 3
    Расширение режима : CM (complete main)
    Параметр Endianness формата : Big
    Идентификатор кодека : A_AC3
    Продолжительность : 1 ч. 29 м.
    Вид битрейта : Постоянный
    Битрейт : 192 Кбит/сек
    Каналы : 2 канала
    Расположение каналов : Front: L R
    Частота : 48,0 КГц
    Битовая глубина : 16 бит
    Метод сжатия : С потерями
    Размер потока : 123 Мбайт (6%)
    Язык : Russian
    Default : Да
    Forced : Нет

    Аудио #2
    Идентификатор : 3
    Формат : AC-3
    Формат/Информация : Audio Coding 3
    Расширение режима : CM (complete main)
    Параметр Endianness формата : Big
    Идентификатор кодека : A_AC3
    Продолжительность : 1 ч. 29 м.
    Вид битрейта : Постоянный
    Битрейт : 448 Кбит/сек
    Каналы : 6 каналов
    Расположение каналов : Front: L C R, Side: L R, LFE
    Частота : 48,0 КГц
    Битовая глубина : 16 бит
    Метод сжатия : С потерями
    Размер потока : 287 Мбайт (15%)
    Язык : English
    Default : Да
    Forced : Нет

    Аудио #3
    Идентификатор : 4
    Формат : AC-3
    Формат/Информация : Audio Coding 3
    Расширение режима : CM (complete main)
    Параметр Endianness формата : Big
    Идентификатор кодека : A_AC3
    Продолжительность : 1 ч. 29 м.
    Вид битрейта : Постоянный
    Битрейт : 448 Кбит/сек
    Каналы : 6 каналов
    Расположение каналов : Front: L C R, Side: L R, LFE
    Частота : 48,0 КГц
    Битовая глубина : 16 бит
    Метод сжатия : С потерями
    Размер потока : 287 Мбайт (15%)
    Язык : German
    Default : Да
    Forced : Нет

    Размер скачиваемого торрента: 1.85 GB (1983407400 Bytes)

    Лекарство / The Cure / Virus Outbreak: Lautloser Killer (2014) BDRip-AVC | Чистый звук скачать через торрент бесплатно
    загрузка...
    Рейтинг →
     (голосов: 1, оценка 5/5, голосовать можно 1 раз )

    Другие торренты по теме:

  • Лекарство для бабушки (2011) HDTVRip
  • Лекарство для бабушки (2011) HDTV 1080i
  • Лекарство от любви / Lekarstwo Na Milosc (1966) DVD5
  • Дневник доктора - Мужчины лучшее лекарство / Doctors Diary - Mаnner sind die beste Medizin (2008-2011) BDRip 720р
  • Лекарство против страха (2013) SATRip от Files-x
  • Лекарство против страха [01-10 из 16) (2013) SATRip
  • Угрозы современного мира. Пожары: Зло или Лекарство (2013) HDTVRip от -=HD-NET=- скачать через торрент бесплатно
  • В. Леви - Лекарство от лени (2005) DjVu скачать через торрент бесплатно


    • Комментарии (0):

      Информация

      Информация

        Посетители, находящиеся в группе Гости, не могут оставлять комментарии в данной новости.

        ↓ Меню



        ↓ Опрос

        А Вы добавили сайт в закладки?
        Да
        Не


        Top 10 за месяц (Фильмы)