.
Авторизация | Регистрация
Хочешь лучшие торренты? Добавь свой email!
Добавить
» » Спокойной ночи, Луна / Little Birds (2011) WEB-DLRip 720p | P скачать через торрент бесплатно




    Спокойной ночи, Луна / Little Birds (2011) WEB-DLRip 720p | P скачать через торрент бесплатно

    Опубликовал: Админ | Дата: 27-02-2015, 11:10 | Просмотров: 193


    Детально о кино
    Русское название: Спокойной ночи, Луна / Little Birds
    Создали в: 2011
    Категория жанра: Драма
    Главный режиссер: Эльгин Натан Джеймс
    Актеры: Лесли Манн, Джуно Темпл, Кейт Босворт, Нил МакДонаф, Кей Панабэйкер, Кайл Галлнер, Кэтлин Гати, Дэвид Уоршофски, ДжейАр Борн, Крис Кой


    Сюжет:
    В фильме рассказывается история девочек, попавших в беду после того, как они сбежали в Лос-Анджелес и связались там со скейтерами и уличными бродягами.
















    Тех. данные


    Время просмотра: 01:36:30
    Снималось в: США, Hunting Lane Films, Polsky Films, Sundial Pictures
    Перевод текста: Профессиональный многоголосый
    Субтитры: Английские


    Файл
    Тип видео: MKV
    Качество фильма: WEB-DLRip 720p
    Информация о видео: MPEG-4 AVC, 4041 Кбит/с, 1280x542
    Информация о звуке: Русский (AC3, 2 ch, 192 Кбит/с), английский (AC3, 6 ch, 384 Кбит/с)
    MI:

    D:Spokojnoj.nochi.Luna.2011.P.WEB-DL.720p.mkv
    General
    Unique ID : 170358417699421237452181667919882224071 (0x8029D67992FBCF959B7783AADB5A01C7)
    Complete name : D:Spokojnoj.nochi.Luna.2011.P.WEB-DL.720p.mkv
    Format : Matroska
    Format version : Version 2
    File size : 3.18 GiB
    Duration : 1h 36mn
    Overall bit rate : 4 710 Kbps
    Movie name : RG KikTeam
    Encoded date : UTC 2013-01-13 14:03:43
    Writing application : mkvmerge v5.2.0 (;I can;t explain;) built on Dec 18 2011 18:12:03
    Writing library : libebml v1.2.3 libmatroska v1.3.0
    Video #1
    ID : 1
    Format : AVC
    Format/Info : Advanced Video Codec
    Format profile : Main@L3.1
    Format settings, CABAC : No
    Format settings, ReFrames : 2 frames
    Codec ID : V_MPEG4/ISO/AVC
    Duration : 1h 36mn
    Bit rate : 4 041 Kbps
    Width : 1 280 pixels
    Height : 542 pixels
    Display aspect ratio : 2.35:1
    Frame rate : 23.976 fps
    Color space : YUV
    Chroma subsampling : 4:2:0
    Bit depth : 8 bits
    Scan type : Progressive
    Bits/(Pixel*Frame) : 0.243
    Stream size : 2.72 GiB (86%)
    Language : English
    Default : Yes
    Forced : No
    Color primaries : BT.709-5, BT.1361, IEC 61966-2-4, SMPTE RP177
    Transfer characteristics : BT.709-5, BT.1361
    Matrix coefficients : BT.709-5, BT.1361, IEC 61966-2-4 709, SMPTE RP177
    Audio #2
    ID : 2
    Format : AC-3
    Format/Info : Audio Coding 3
    Mode extension : CM (complete main)
    Format settings, Endianness : Big
    Codec ID : A_AC3
    Duration : 1h 36mn
    Bit rate mode : Constant
    Bit rate : 192 Kbps
    Channel(s) : 2 channels
    Channel positions : Front: L R
    Sampling rate : 48.0 KHz
    Bit depth : 16 bits
    Compression mode : Lossy
    Stream size : 133 MiB (4%)
    Language : Russian
    Default : Yes
    Forced : No
    Audio #3
    ID : 3
    Format : AC-3
    Format/Info : Audio Coding 3
    Mode extension : CM (complete main)
    Format settings, Endianness : Big
    Codec ID : A_AC3
    Duration : 1h 36mn
    Bit rate mode : Constant
    Bit rate : 384 Kbps
    Channel(s) : 6 channels
    Channel positions : Front: L C R, Side: L R, LFE
    Sampling rate : 48.0 KHz
    Bit depth : 16 bits
    Compression mode : Lossy
    Stream size : 265 MiB (8%)
    Language : English
    Default : No
    Forced : No
    Text #4
    ID : 4
    Format : UTF-8
    Codec ID : S_TEXT/UTF8
    Codec ID/Info : UTF-8 Plain Text
    Language : English
    Default : No
    Forced : No
    Скриншоты для ознакомления



    Размер скачиваемого торрента: 3.18 GB (3409239635 Bytes)

    Спокойной ночи, Луна / Little Birds (2011) WEB-DLRip 720p | P скачать через торрент бесплатно
    загрузка...
    Рейтинг →
     (голосов: 1, оценка 4/5, голосовать можно 1 раз )

    Другие торренты по теме:

  • Спокойной ночи, малыши! Выпуски за 4 квартал (2012) SATRip
  • Спокойной ночи, малыши! (1965-2007) TVRip
  • Спокойной ночи, малыши (2013) SATRip от RG GeneralFilm
  • Спокойной ночи, Луна / Little Birds (2011) WEB-DLRip
  • Спокойной ночи, малыши! Выпуски за 1 квартал (2012) SATRip
  • Спокойной ночи, малыши / Saturday morning mistery (2012) WEB-DL 720p | L1
  • Спокойной ночи, малыши! (2012) SATRip скачать через торрент бесплатно
  • Спокойной ночи, малыши! (2014) SATRip от MediaClub


    • Комментарии (0):

      Информация

      Информация

        Посетители, находящиеся в группе Гости, не могут оставлять комментарии в данной новости.

        ↓ Меню



        ↓ Опрос

        А Вы добавили сайт в закладки?
        Да
        Не


        Top 10 за месяц (Фильмы)