.
Авторизация | Регистрация
Хочешь лучшие торренты? Добавь свой email!
Добавить
» » Маска Зорро / The Mask of Zorro (1998) BDRip-AVC | iPad | D скачать торрент бесплатно




    Маска Зорро / The Mask of Zorro (1998) BDRip-AVC | iPad | D скачать торрент бесплатно

    Опубликовал: Админ | Дата: 27-02-2015, 11:10 | Просмотров: 218



    Маска Зорро / The Mask of Zorro (1998) BDRip-AVC | iPad | D

    Русское название: Маска Зорро
    Русское название в мировом прокате: The Mask of Zorro
    Создали в: 1998
    Категория жанра: боевик, триллер, мелодрама, комедия, приключения
    Главный режиссер: Мартин Кэмпбелл
    Актеры: Антонио Бандерас, Энтони Хопкинс, Кэтрин Зета-Джонс, Стюарт Уилсон, Уильям Маркес, Тони Амендола, Виктор Риверс, Л. К. Джонс, Педро Армендарис мл., Жоаким ди Алмейда

    Сюжет фильма:
    Стареющий герой, отдавший все силы борьбе за справедливость, проведший десятилетия в темнице, потерявший жену и дочь, передает свои знания, умения и черную маску молодому отчаянному бойцу, который отныне и будет сражаться с теми, кто вершит зло.


    Снималось в: США, Германия
    Киностудия: Amblin Entertainment, David Foster Productions
    Время просмотра: 2:17:38
    Перевод текста: Русский дублированный

    Файл
    Кодек для видео: H.264
    Качество фильма: BDRip-AVC 576p
    Информация о видео: 1024x428 (2.40:1) at 23.976 fps, AVC at 3200 kbps
    Информация о звуке:
    1: АAС 2.0 144 kbps - Русский дублированный
    2: АAС 2.0 144 kbps - Английский
    Субтитры: отсутствуют

    MI

    General
    Complete name : C:DownloadsThe Mask of Zorro.1998.BDRip.576p.D.m4v
    Format : MPEG-4
    Codec ID : M4V
    File size : 3.41 GiB
    Duration : 2h 17mn
    Overall bit rate mode : Variable
    Overall bit rate : 3 552 Kbps
    Movie name : Маска Зорро
    Performer : Martin Campbell
    Genre : Action Adventure
    ContentType : Short Film
    Deion : Стареющий герой, отдавший все силы борьбе за справедливость, проведший десятилетия в темнице, потерявший жену и дочь, передает свои знания, умения и черную маску молодому отчаянному бойцу, который отныне и будет сражаться с теми, кто вершит зло.
    Recorded date : UTC 1998-07-17 07:00:00
    Encoded date : UTC 2014-04-03 13:01:42
    Tagged date : UTC 2014-04-03 14:12:36
    Copyright : Sony / Columbia
    Cover : Yes
    Comment : Возвращение легендарного героя
    ContentRating : mpaa|PG-13|300|

    AppleStoreCatalogID : 531271077
    Vendor : Apple:vendor_id:1998-7096

    Video #1
    ID : 1
    Format : AVC
    Format/Info : Advanced Video Codec
    Format profile : High@L4.1
    Format settings, CABAC : Yes
    Format settings, ReFrames : 9 frames
    Codec ID : avc1
    Codec ID/Info : Advanced Video Coding
    Duration : 2h 17mn
    Bit rate : 3 254 Kbps
    Maximum bit rate : 13.0 Mbps
    Width : 1 024 pixels
    Height : 428 pixels
    Display aspect ratio : 2.40:1
    Frame rate mode : Constant
    Frame rate : 23.976 fps
    Color space : YUV
    Chroma subsampling : 4:2:0
    Bit depth : 8 bits
    Scan type : Progressive
    Bits/(Pixel*Frame) : 0.310
    Stream size : 3.13 GiB (92%)
    Title : The Mask of Zorro _1998_
    Language : English
    Encoded date : UTC 2014-04-03 13:01:42
    Tagged date : UTC 2014-04-03 13:02:43
    Matrix coefficients : BT.709

    Video #2
    ID : 7
    Format : JPEG
    Codec ID : jpeg
    Duration : 2h 17mn
    Bit rate mode : Variable
    Bit rate : 711 bps
    Width : 640 pixels
    Height : 267 pixels
    Display aspect ratio : 2.40:1
    Frame rate mode : Variable
    Frame rate : 0.002 fps
    Minimum frame rate : 0.001 fps
    Maximum frame rate : 0.004 fps
    Color space : YUV
    Chroma subsampling : 4:2:0
    Bit depth : 8 bits
    Compression mode : Lossy
    Bits/(Pixel*Frame) : 2.080
    Stream size : 694 KiB (0%)
    Language : English
    Encoded date : UTC 2014-04-03 14:12:30
    Tagged date : UTC 2014-04-03 14:12:30

    Audio #1
    ID : 3
    Format : AAC
    Format/Info : Advanced Audio Codec
    Format profile : LC
    Codec ID : 40
    Duration : 2h 17mn
    Bit rate mode : Variable
    Bit rate : 144 Kbps
    Maximum bit rate : 178 Kbps
    Channel(s) : 2 channels
    Channel positions : Front: L R
    Sampling rate : 48.0 KHz
    Compression mode : Lossy
    Stream size : 143 MiB (4%)
    Title : Dub
    Language : Russian
    Encoded date : UTC 2014-04-03 12:49:40
    Tagged date : UTC 2014-04-03 13:02:43

    Audio #2
    ID : 5
    Format : AAC
    Format/Info : Advanced Audio Codec
    Format profile : LC
    Codec ID : 40
    Duration : 2h 17mn
    Bit rate mode : Variable
    Bit rate : 144 Kbps
    Maximum bit rate : 180 Kbps
    Channel(s) : 2 channels
    Channel positions : Front: L R
    Sampling rate : 48.0 KHz
    Compression mode : Lossy
    Stream size : 143 MiB (4%)
    Title : Original
    Language : English
    Encoded date : UTC 2014-04-03 12:58:01
    Tagged date : UTC 2014-04-03 13:02:43

    Menu
    ID : 6
    Codec ID : text
    Duration : 2h 17mn
    Language : English
    Encoded date : UTC 2014-04-03 13:03:42
    Tagged date : UTC 2014-04-03 13:03:42
    Bit rate mode : CBR

    iTunes tags


    Sort Name: The Mask of Zorro
    XID: Apple:vendor_id:1998-7096
    Content ID: 531271077
    Copyright: Sony / Columbia
    ScreenWriters: Джонстон МакКалли, Тед Эллиот, Терри Россио
    Producers: Даг Клейборн, Дэвид Фостер, Джон Герц
    Director: Мартин Кэмпбелл
    Cast: Антонио Бандерас, Энтони Хопкинс, Кэтрин Зета-Джонс, Стюарт Уилсон, Уильям Маркес, Тони Амендола, Виктор Риверс, Л. К. Джонс, Педро Армендарис мл., Жоаким ди Алмейда // Antonio Banderas (Alejandro Murrieta / Zorro), Anthony Hopkins (Don Diego de la Vega / Zorro), Catherine Zeta-Jones (Elena Montero / Elena Murrieta), Stuart Wilson (Don Rafael Montero), Diego Sieres (Young Joaqu?n Murrieta), Jos? Mar?a de Tavira (Young Alejandro Murrieta), Emiliano Guerra (Boy Crying), Yolanda Orisaga (Woman Crying), Paco Morayta (Undertaker), William Marquez (Fray Felipe), Tony Amendola (Don Luiz), Pedro Altamirano (Squad Leader), Luisa Huertas (Nanny), Mar?a Fern?ndez Cruz (Baby Elena de la Vega), Julieta Rosen (Esperanza de la Vega), Ra?l Mart?nez (Heavyset Lieutenant), Victor Rivers (Joaqu?n Murrieta), L.Q. Jones (Three-Fingered Jack), Jos? P?rez (Cpl. Armando Garcia), Tony Cabral (Soldier Holding ;Wanted; Poster), Tony Genaro (Watering Station Owner), Iv?n Rafael (Small Boy at Watering Station), David Villalpando (Stupid Soldier), Mar?a Fern?ndez Cruz (Baby Elena de la Vega), M?nica Fern?ndez Cruz (Baby Elena de la Vega)
    Rating: PG-13
    Long Deion: Стареющий герой, отдавший все силы борьбе за справедливость, проведший десятилетия в темнице, потерявший жену и дочь, передает свои знания, умения и черную маску молодому отчаянному бойцу, который отныне и будет сражаться с теми, кто вершит зло.
    Deion: Стареющий герой, отдавший все силы борьбе за справедливость, проведший десятилетия в темнице, потерявший жену и дочь, передает свои знания, умения и черную маску молодому отчаянному бойцу, который отныне и будет сражаться с теми, кто вершит зло.
    Release Date: 1998-07-17T07:00:00Z
    Genre: Action Adventure
    Artist: Martin Campbell
    Name: Маска Зорро
    Comments: Возвращение легендарного героя

    x264

    x264 info: frame I:1476 Avg QP:15.48 size: 89095
    x264 info: frame P:48529 Avg QP:17.34 size: 35414
    x264 info: frame B:147995 Avg QP:19.71 size: 10198
    x264 info: consecutive B-frames: 4.1% 3.0% 10.5% 20.4% 25.5% 33.6% 2.1% 0.5% 0.2% 0.0% 0.0% 0.0% 0.0% 0.0% 0.1%
    x264 info: mb I I16..4: 16.4% 49.0% 34.6%
    x264 info: mb P I16..4: 1.3% 12.3% 3.5% P16..4: 26.6% 35.3% 16.6% 0.0% 0.0% skip: 4.4%
    x264 info: mb B I16..4: 0.0% 1.5% 0.4% B16..8: 33.2% 22.1% 4.4% direct: 6.7% skip:31.7% L0:35.8% L1:42.4% BI:21.8%
    x264 info: 8x8 transform intra:70.5% inter:37.9%
    x264 info: coded y,uvDC,uvAC intra: 95.2% 87.6% 69.6% inter: 30.6% 19.2% 10.2%
    x264 info: i16 v,h,dc,p: 10% 7% 19% 65%
    x264 info: i8 v,h,dc,ddl,ddr,vr,hd,vl,hu: 9% 8% 10% 10% 13% 13% 12% 12% 13%
    x264 info: i4 v,h,dc,ddl,ddr,vr,hd,vl,hu: 11% 7% 6% 10% 15% 14% 13% 12% 13%
    x264 info: i8c dc,h,v,p: 42% 23% 19% 17%
    x264 info: Weighted P-Frames: Y:5.4% UV:3.0%
    x264 info: ref P L0: 55.6% 11.6% 12.8% 6.2% 4.4% 3.3% 2.7% 1.7% 1.5% 0.2% 0.0%
    x264 info: ref B L0: 89.9% 4.3% 2.3% 1.2% 0.9% 0.7% 0.6% 0.3%
    x264 info: ref B L1: 97.2% 2.8%
    x264 info: kb/s:3254.28




    Залил: gekka
    Размер скачиваемого торрента: 3.41 GB (3666469735 Bytes)

    Маска Зорро / The Mask of Zorro (1998) BDRip-AVC | iPad | D торрент скачать бесплатно
    загрузка...
    Рейтинг →
     (голосов: 1, оценка 5/5, голосовать можно 1 раз )

    Другие торренты по теме:

  • Маска Зорро / The Mask of Zorro (1998) HDRip от Scarabey | D
  • Маска Зорро / The Mask of Zorro (1998) DVDRip
  • Маска Зорро / The Mask of Zorro (1998) BDRip 720p | D скачать через торрент бесплатно
  • Маска Зорро / The Mask of Zorro (1998) BDRip от HQCLUB скачать через торрент бесплатно
  • Маска Зорро / The Mask of Zorro (1998) HDRip-AVC от New-Team
  • Маска Зорро / The Mask of Zorro (1998) HDRip от Scarabey | D скачать через торрент бесплатно
  • Маска Зорро / The Mask of Zorro (1998) BDRip | A
  • Маска Зорро / The Mask of Zorro (1998) BDRip-AVC от New-Team | D | Лицензия


    • Комментарии (0):

      Информация

      Информация

        Посетители, находящиеся в группе Гости, не могут оставлять комментарии в данной новости.

        ↓ Меню



        ↓ Опрос

        А Вы добавили сайт в закладки?
        Да
        Не


        Top 10 за месяц (Фильмы)