.
Авторизация | Регистрация
Хочешь лучшие торренты? Добавь свой email!
Добавить
» » Ты и я навсегда / You Me Forever (2012) DVB от MediaClub | P скачать торрент бесплатно




    Ты и я навсегда / You Me Forever (2012) DVB от MediaClub | P скачать торрент бесплатно

    Опубликовал: Админ | Дата: 27-02-2015, 11:10 | Просмотров: 213



    Детально о кино
    Русское название: Ты и я навсегда
    Русское название в мировом прокате: You Me Forever
    Создали в: 2012
    Категория жанра: Драма
    Главный режиссер: Каспар Мунк
    Актеры: Джули Сандра Брохорст Андерсен, Фредерикке Даль Хансен, Эмили Крус, Бенжамин Уондшнейдер, Аллан Хайд, Сайрон Бьорк Мелвиль, Виктория Кармен Сонн, Петрине Аггер, Энн Катрин Андерсен, Мортен Хаух-Фаусбёлль

    Сюжет фильма:
    Лаура и Кристин — лучшие подруги. И они были лучшими подругами всю жизнь. Однажды им встречается таинственная и очаровательная Мария, и тут их дружба испытывается на прочность. Для Лауры эта встреча меняет мир, который, как она думала, она хорошо знала. История о друзьях и врагах, беззащитности и дикости, любви и сексе.



    Снималось в: Дания
    Киностудия: Nimbus Film Productions
    Время просмотра: 01:22:57
    Перевод текста: Профессиональный многоголосый

    Файл
    Качество фильма: DVB
    Информация о видео: MPEG-2, 1785 Кбит/с, 720x576@1024x576
    Информация о звуке: Русский (АС3, 6 ch, 384 Кбит/с) / (MP2, 2 ch, 192 Кбит/с)

    Семпл

    Скриншоты для ознакомления

    MI
    Общее
    Полное имя : Ty.i.ja.navsegda.2012.DVB.MediaClub.ts
    Формат : MPEG-TS
    Профиль формата : No PAT/PMT
    Размер файла : 1,44 Гбайт
    Продолжительность : 1 ч. 22 м.
    Режим общего битрейта : Переменный
    Общий поток : 2490 Кбит/сек

    Видео
    Идентификатор : 322 (0x142)
    Формат : MPEG Video
    Версия формата : Version 2
    Профиль формата : Main@Main
    Параметр BVOP формата : Да
    Параметр матрицы формата : Выборочная
    Параметр GOP формата : Variable
    Продолжительность : 1 ч. 22 м.
    Вид битрейта : Переменный
    Битрейт : 1785 Кбит/сек
    Максимальный битрейт : 15,0 Мбит/сек
    Ширина : 720 пикселей
    Высота : 576 пикселей
    Соотношение сторон : 16:9
    Частота кадров : 25,000 кадров/сек
    Стандарт вещания : PAL
    Цветовое пространство : YUV
    Субдискретизация насыщенности : 4:2:0
    Битовая глубина : 8 бит
    Тип развёртки : Чересстрочная
    Порядок развёртки : Верхнее поле первое
    Метод сжатия : С потерями
    Бит/(Пиксели*Кадры) : 0.172
    Размер потока : 1,03 Гбайт (72%)

    Аудио #1
    Идентификатор : 405 (0x195)
    Формат : MPEG Audio
    Версия формата : Version 1
    Профиль формата : Layer 2
    Продолжительность : 1 ч. 22 м.
    Вид битрейта : Постоянный
    Битрейт : 192 Кбит/сек
    Каналы : 2 канала
    Частота : 48,0 КГц
    Метод сжатия : С потерями
    Задержка видео : -772 мс.
    Размер потока : 114 Мбайт (8%)

    Аудио #2
    Идентификатор : 435 (0x1B3)
    Формат : AC-3
    Формат/Информация : Audio Coding 3
    Расширение режима : CM (complete main)
    Параметр Endianness формата : Big
    Продолжительность : 1 ч. 22 м.
    Вид битрейта : Постоянный
    Битрейт : 384 Кбит/сек
    Каналы : 6 каналов
    Расположение каналов : Front: L C R, Side: L R, LFE
    Частота : 48,0 КГц
    Битовая глубина : 16 бит
    Метод сжатия : С потерями
    Задержка видео : -796 мс.
    Размер потока : 228 Мбайт (15%)


    Релиз подготовил:
    Залил: poja
    Размер скачиваемого торрента: 1.44 GB (1549164180 Bytes)

    Ты и я навсегда / You Me Forever (2012) DVB от MediaClub | P торрент скачать бесплатно
    загрузка...
    Рейтинг →
     (голосов: 1, оценка 3/5, голосовать можно 1 раз )

    Другие торренты по теме:

  • Юлий Казаков и группа Витрина - Ты и я (1990) FLAC скачать через торрент бесплатно
  • Ты и я - Хочу тебя (1991) FLAC
  • Би-2 - Ты и я (2013) FLAC
  • Ты и Я 2 / Kimi to Boku. 2 (2012) HDTVRip 720p от Мифоград | L1
  • Ты и я / Io e te (2012) HDTVRip-AVC от MediaClub | P
  • Ты и я навсегда / You Me Forever (2012) DVDRip | Лицензия
  • Ты и я / Io e te (2012) HDRip от Scarabey скачать через торрент бесплатно
  • Ты и я скачать через торрент бесплатно


    • Комментарии (0):

      Информация

      Информация

        Посетители, находящиеся в группе Гости, не могут оставлять комментарии в данной новости.

        ↓ Меню



        ↓ Опрос

        А Вы добавили сайт в закладки?
        Да
        Не


        Top 10 за месяц (Фильмы)