.
Авторизация | Регистрация
Хочешь лучшие торренты? Добавь свой email!
Добавить
» » Позднее раскаяние (2013) HDTV 1080i от Files-x скачать через торрент бесплатно




    Позднее раскаяние (2013) HDTV 1080i от Files-x скачать через торрент бесплатно

    Опубликовал: Админ | Дата: 27-02-2015, 11:10 | Просмотров: 231



    Детально о кино
    Русское название: Позднее раскаяние
    Создали в: 2013
    Категория жанра: Драма, мелодрама
    Главный режиссер: Оксана Байрак
    Актеры: Артем Крестников, Марина Ягодкина, Андрей Косташ, Яна Глущенко, Оксана Коляденко, Михаил Пшеничный, Светлана Косолапова, Алёша Барбинов, Сергей Комаров (II), Лариса Удовиченко, Анна Синякина, Регина Мянник, Олег Масленников-Войтов, Максим Дрозд, Игорь Верник, Дарина Лобода, Никита Зверев, Наталия Васько, Ада Роговцева, Дарья Волга

    Сюжет фильма: Семья Милы и Кости держится исключительно благодаря двум дочерям, Лике и Кире. Мила давно сняла со счетов мужа, который не может обеспечить семью, отдав предпочтение предприимчивому любовнику Томашу. А вот жизнь Анны и ее сына Сергея подчинена ожиданию чуда – не смотря на то, что ее муж уже несколько лет числится пропавшим без вести, Анна все еще верит, что он вернется из Афганистана. И так непростая жизнь двух семей внезапно запутывается еще больше, когда оказывается, что у Киры и Сергея будет ребенок, ведь влюбленным всего по 16 лет…

    Снималось в: Украина, Film.ua Production
    Время просмотра: 4 x 00:47:00
    Перевод текста: Не требуется

    Файл
    Качество фильма: HDTV 1080i
    Информация о видео: MPEG-4 AVC, ~ 7200 Кбит/с, 1920x1080
    Информация о звуке: MP2, 2 ch, 192 Кбит/с

    MI
    Общее
    Идентификатор : 1 (0x1)
    Полное имя : D:VytasRipaiPozdnee.raskajene.2014.HDTV.1080.Files-x1.Pozdnee.raskajene.2014.HDTV.1080.Files-x.ts
    Формат : MPEG-TS
    Размер файла : 2,54 Гбайт
    Продолжительность : 46 м.
    Режим общего битрейта : Переменный
    Общий поток : 7763 Кбит/сек

    Видео
    Идентификатор : 68 (0x44)
    Идентификатор меню : 1 (0x1)
    Формат : AVC
    Формат/Информация : Advanced Video Codec
    Профиль формата : High@L4.0
    Параметр CABAC формата : Да
    Параметр ReFrames формата : 3 кадра
    Параметр GOP формата : M=4, N=28
    Идентификатор кодека : 27
    Продолжительность : 46 м.
    Битрейт : 7185 Кбит/сек
    Ширина : 1920 пикселей
    Высота : 1080 пикселей
    Соотношение сторон : 16:9
    Частота кадров : 25,000 кадров/сек
    Стандарт вещания : Component
    Цветовое пространство : YUV
    Субдискретизация насыщенности : 4:2:0
    Битовая глубина : 8 бит
    Тип развёртки : Чересстрочная
    Порядок развёртки : Верхнее поле первое
    Бит/(Пиксели*Кадры) : 0.139
    Размер потока : 2,35 Гбайт (93%)
    Основные цвета : BT.709
    Характеристики трансфера : BT.709
    Коэффициенты матрицы : BT.709

    Аудио
    Идентификатор : 69 (0x45)
    Идентификатор меню : 1 (0x1)
    Формат : MPEG Audio
    Версия формата : Version 1
    Профиль формата : Layer 2
    Идентификатор кодека : 3
    Продолжительность : 46 м.
    Вид битрейта : Постоянный
    Битрейт : 192 Кбит/сек
    Каналы : 2 канала
    Частота : 48,0 КГц
    Метод сжатия : С потерями
    Размер потока : 64,3 Мбайт (2%)
    Язык : Russian



    Скриншоты для ознакомления


    Релиз подготовил:
    Залил: wowa63
    Размер скачиваемого торрента: 9.73 GB (10449633704 Bytes)

    Позднее раскаяние (2013) HDTV 1080i от Files-x скачать через торрент бесплатно
    загрузка...
    Рейтинг →
     (голосов: 1, оценка 4/5, голосовать можно 1 раз )

    Другие торренты по теме:

  • Позднее раскаяние (2013) SATRip от Машуни
  • Позднее раскаяние (2013) SATRip от Files-x
  • Позднее раскаяние (2013) IPTV
  • Позднее раскаяние (2013) HDTVRip 720p от MediaClub
  • Позднее раскаяние (2013) HDTVRip от Files-x скачать через торрент бесплатно


    • Комментарии (0):

      Информация

      Информация

        Посетители, находящиеся в группе Гости, не могут оставлять комментарии в данной новости.

        ↓ Меню



        ↓ Опрос

        А Вы добавили сайт в закладки?
        Да
        Не


        Top 10 за месяц (Фильмы)