.
Авторизация | Регистрация
Хочешь лучшие торренты? Добавь свой email!
Добавить
» » Контора / The Company (2007) BDRip 720p от HDClub скачать через торрент бесплатно




    Контора / The Company (2007) BDRip 720p от HDClub скачать через торрент бесплатно

    Опубликовал: Админ | Дата: 27-02-2015, 11:10 | Просмотров: 371



    Детально о кино
    Русское название: Контора
    Русское название в мировом прокате: The Company
    Создали в: 2007
    Категория жанра: Драма, триллер, исторический
    Главный режиссер: Микаэл Саломон
    Актеры: Майкл Китон, Альфред Молина, Крис О`Доннелл, Рори Кокрейн, Алессандро Нивола, Том Холландер, Тед Атертон, Стивен Богерт, Рик Робертс, Наташа МакЭлхоун, Александра Мария Лара, Майк Тернер, Ульрих Томсен, Джейби Бланк, Христо Митцков, Седрик Смит, Бэрри Флэтмэн, Питер Рудольф, Габор Нагипал, Ласло Контер, Левенте Тёркёли, Мишел Матичевич, Дерек Эслэнд, Джеймс Арнольд, Сильвия Бараняи, Ричард Блэкберн, Саймон Кэллоу, Джерго Данка, Линн Дерагон, Фернанда Дороги, Криста Дороги, Крэйг Элдридж, Петер Фаншикай, Кирстин Хинтон, Илона Кашшаи, Джуда Кац, Ласло Кешег, Марта Линдквист, Мэтт Линдквист, Филлип МакКензи, Катрин МакНалли, Дэймон Т. Миллер, Пол Мота

    Сюжет фильма:
    В январе 1954 года в Западном Берлине опытный агент ЦРУ Харви Торрити (кодовое имя — Чародей) и его молодой помощник Джек МакОлифф (кодовое имя — Ученик) встречаются с человеком, который хочет вместе со своей семьей сбежать из Восточной Германии на Запад. В обмен на план побега он обещает назвать имя крота — агента КГБ, внедренного в британскую службу МИ-6.

    Сотрудники ЦРУ соглашаются помочь беглецу, однако операция срывается… Очевидно, по вине того самого крота… К этому выводу приходят не только Чародей и его Ученик, но и их коллега Джеймс Энглтон (кодовое имя — Мамочка)… На выяснение имени чужого, работающего среди своих у цэрэушников уйдет не один год…



    Снималось в: США
    Время просмотра: 04:46:03 - 01:43:50 | 01:31:06 | 01:31:05
    Перевод текста: Многоголосый закадровый, Флагман, DVD|

    Файл
    Кодек для видео: AVC
    Качество фильма: BDRip 720p
    Информация о видео: 1280x720 at 23,976 fps, x264@L4.1, 2pass, ~4515 kbps avg
    Информация о звуке:
    Аудио#1: Russian: 48 kHz, AC3, 2/0 (L,R), ~192.00 kbps avg |Многоголосый закадровый, Флагман, DVD|
    Аудио#2: English: 48 kHz, AC3, 3/2 (L,C,R,l,r) LFE ch, ~640.00 kbps avg
    Субтитры: Russian (Forced 1, 3), English, French


    Список серий

    Part 01
    Part 02
    Part 03

    Награды
    Золотой глобус, 2008 год
    Номинации (1):
    Лучший мини-сериал или фильм на ТВ

    Сатурн, 2008 год
    Номинации (1):
    Лучшая телепостановка

    Эмми, 2008 год
    Номинации (1):
    Лучшие вступительные титры

    Премия Гильдии актеров, 2008 год
    Номинации (1):
    Лучшая мужская роль в телефильме или минисериале (Майкл Китон)

    Дополнительно
    Дорожка №1 с лицензионного двд из личной коллекции, когда-то много лет назад покупался для Vlad1k_H_.
    Наша версия сильно отличается монтажом сцен. 1-я часть суммарно короче на 15 минут, на эти места сделаны форсированные сабы.
    2 и 3 части наоборот длиннее ~ по 5 минут каждая, лишнее вырезано, в 3-й части форсированные сабы на 1 фразу.

    MediaInfo

    codeОбщее
    Уникальный идентификатор : 248305320967859056157858476010103002595 (0xBACDDD845181CCFBB01EF57DECB655E3)
    Полное имя : The.Company.2007.720p.BluRay.Rus.Eng.HDCLUBThe.Company.2007.Part1.720p.BluRay.Rus.Eng.HDCLUB.mkv
    Формат : Matroska
    Версия формата : Version 4 / Version 2
    Размер файла : 3,88 Гбайт
    Продолжительность : 1 ч. 43 м.
    Общий поток : 5350 Кбит/сек
    Дата кодирования : UTC 2014-04-01 19:19:10
    Программа кодирования : mkvmerge v6.8.0 (;Theme for Great Cities;) 64bit built on Mar 2 2014 21:34:26
    Библиотека кодирования : libebml v1.3.0 libmatroska v1.4.1

    Видео
    Идентификатор : 1
    Формат : AVC
    Формат/Информация : Advanced Video Codec
    Профиль формата : High@L5.1
    Параметр CABAC формата : Да
    Параметр ReFrames формата : 5 кадров
    Параметр GOP формата : N=1
    Идентификатор кодека : V_MPEG4/ISO/AVC
    Продолжительность : 1 ч. 43 м.
    Битрейт : 4515 Кбит/сек
    Ширина : 1280 пикселей
    Высота : 720 пикселей
    Соотношение сторон : 16:9
    Режим частоты кадров : Постоянный
    Частота кадров : 23,976 кадра/сек
    Цветовое пространство : YUV
    Субдискретизация насыщенности : 4:2:0
    Битовая глубина : 8 бит
    Тип развёртки : Прогрессивная
    Бит/(Пиксели*Кадры) : 0.204
    Размер потока : 3,20 Гбайт (82%)
    Заголовок : The Company 2007. Part 1
    Библиотека кодирования : x264 core 59 r839M 27c3071
    Настройки программы : cabac=1 / ref=5 / deblock=1:-3:-3 / analyse=0x3:0x133 / me=umh / subme=7 / me-prepass=1 / brdo=1 / mixed_ref=1 / me_range=16 / chroma_me=1 / trellis=0 / 8x8dct=1 / cqm=2 / deadzone=6,4 / chroma_qp_offset=0 / threads=6 / nr=0 / decimate=1 / mbaff=0 / fgo=10 / bframes=3 / b_pyramid=1 / b_adapt=1 / b_bias=0 / direct=3 / wpredb=1 / bime=1 / keyint=250 / keyint_min=25 / scenecut=40(pre) / rc=2pass / bitrate=4515 / ratetol=1.0 / rceq=;blurCplx^(1-qComp); / qcomp=1.00 / qpmin=10 / qpmax=51 / qpstep=4 / cplxblur=20.0 / qblur=0.5 / ip_ratio=1.40 / pb_ratio=1.15 / aq=2:0.60
    Язык : English
    Default : Да
    Forced : Нет

    Аудио #1
    Идентификатор : 2
    Формат : AC-3
    Формат/Информация : Audio Coding 3
    Расширение режима : CM (complete main)
    Параметр Endianness формата : Big
    Идентификатор кодека : A_AC3
    Продолжительность : 1 ч. 43 м.
    Вид битрейта : Постоянный
    Битрейт : 192 Кбит/сек
    Каналы : 2 канала
    Расположение каналов : Front: L R
    Частота : 48,0 КГц
    Битовая глубина : 16 бит
    Метод сжатия : С потерями
    Размер потока : 143 Мбайт (4%)
    Заголовок : AC3 2.0 @ 192 kbps - Флагман, DVD
    Язык : Russian
    Default : Да
    Forced : Нет

    Аудио #2
    Идентификатор : 3
    Формат : AC-3
    Формат/Информация : Audio Coding 3
    Расширение режима : CM (complete main)
    Параметр Endianness формата : Big
    Идентификатор кодека : A_AC3
    Продолжительность : 1 ч. 43 м.
    Вид битрейта : Постоянный
    Битрейт : 640 Кбит/сек
    Каналы : 6 каналов
    Расположение каналов : Front: L C R, Side: L R, LFE
    Частота : 48,0 КГц
    Битовая глубина : 16 бит
    Метод сжатия : С потерями
    Размер потока : 475 Мбайт (12%)
    Заголовок : AC3 5.1 @ 640 kbps
    Язык : English
    Default : Нет
    Forced : Нет

    Текст #1
    Идентификатор : 4
    Формат : UTF-8
    Идентификатор кодека : S_TEXT/UTF8
    Идентификатор кодека/Информация : UTF-8 Plain Text
    Заголовок : Forced
    Язык : Russian
    Default : Да
    Forced : Нет

    Текст #2
    Идентификатор : 5
    Формат : UTF-8
    Идентификатор кодека : S_TEXT/UTF8
    Идентификатор кодека/Информация : UTF-8 Plain Text
    Язык : English
    Default : Нет
    Forced : Нет

    Текст #3
    Идентификатор : 6
    Формат : UTF-8
    Идентификатор кодека : S_TEXT/UTF8
    Идентификатор кодека/Информация : UTF-8 Plain Text
    Язык : French
    Default : Нет
    Forced : Нет

    Общее
    Уникальный идентификатор : 249861281986248986743162655944624844000 (0xBBF9885165CE375C8AD5EC5A57742CE0)
    Полное имя : The.Company.2007.720p.BluRay.Rus.Eng.HDCLUBThe.Company.2007.Part2.720p.BluRay.Rus.Eng.HDCLUB.mkv
    Формат : Matroska
    Версия формата : Version 4 / Version 2
    Размер файла : 3,94 Гбайт
    Продолжительность : 1 ч. 31 м.
    Общий поток : 6193 Кбит/сек
    Дата кодирования : UTC 2014-03-27 05:22:08
    Программа кодирования : mkvmerge v6.8.0 (;Theme for Great Cities;) 64bit built on Mar 2 2014 21:34:26
    Библиотека кодирования : libebml v1.3.0 libmatroska v1.4.1

    Видео
    Идентификатор : 1
    Формат : AVC
    Формат/Информация : Advanced Video Codec
    Профиль формата : High@L5.1
    Параметр CABAC формата : Да
    Параметр ReFrames формата : 5 кадров
    Параметр GOP формата : N=1
    Идентификатор кодека : V_MPEG4/ISO/AVC
    Продолжительность : 1 ч. 31 м.
    Битрейт : 5360 Кбит/сек
    Ширина : 1280 пикселей
    Высота : 720 пикселей
    Соотношение сторон : 16:9
    Режим частоты кадров : Постоянный
    Частота кадров : 23,976 кадра/сек
    Цветовое пространство : YUV
    Субдискретизация насыщенности : 4:2:0
    Битовая глубина : 8 бит
    Тип развёртки : Прогрессивная
    Бит/(Пиксели*Кадры) : 0.243
    Размер потока : 3,33 Гбайт (85%)
    Заголовок : The Company 2007. Part 2
    Библиотека кодирования : x264 core 59 r839M 27c3071
    Настройки программы : cabac=1 / ref=5 / deblock=1:-3:-3 / analyse=0x3:0x133 / me=umh / subme=7 / me-prepass=1 / brdo=1 / mixed_ref=1 / me_range=16 / chroma_me=1 / trellis=0 / 8x8dct=1 / cqm=2 / deadzone=6,4 / chroma_qp_offset=0 / threads=6 / nr=0 / decimate=1 / mbaff=0 / fgo=10 / bframes=3 / b_pyramid=1 / b_adapt=1 / b_bias=0 / direct=3 / wpredb=1 / bime=1 / keyint=250 / keyint_min=25 / scenecut=40(pre) / rc=2pass / bitrate=5360 / ratetol=1.0 / rceq=;blurCplx^(1-qComp); / qcomp=1.00 / qpmin=10 / qpmax=51 / qpstep=4 / cplxblur=20.0 / qblur=0.5 / ip_ratio=1.40 / pb_ratio=1.15 / aq=2:0.60
    Язык : English
    Default : Да
    Forced : Нет

    Аудио #1
    Идентификатор : 2
    Формат : AC-3
    Формат/Информация : Audio Coding 3
    Расширение режима : CM (complete main)
    Параметр Endianness формата : Big
    Идентификатор кодека : A_AC3
    Продолжительность : 1 ч. 31 м.
    Вид битрейта : Постоянный
    Битрейт : 192 Кбит/сек
    Каналы : 2 канала
    Расположение каналов : Front: L R
    Частота : 48,0 КГц
    Битовая глубина : 16 бит
    Метод сжатия : С потерями
    Размер потока : 125 Мбайт (3%)
    Заголовок : AC3 2.0 @ 192 kbps - Флагман, DVD
    Язык : Russian
    Default : Да
    Forced : Нет

    Аудио #2
    Идентификатор : 3
    Формат : AC-3
    Формат/Информация : Audio Coding 3
    Расширение режима : CM (complete main)
    Параметр Endianness формата : Big
    Идентификатор кодека : A_AC3
    Продолжительность : 1 ч. 31 м.
    Вид битрейта : Постоянный
    Битрейт : 640 Кбит/сек
    Каналы : 6 каналов
    Расположение каналов : Front: L C R, Side: L R, LFE
    Частота : 48,0 КГц
    Битовая глубина : 16 бит
    Метод сжатия : С потерями
    Размер потока : 417 Мбайт (10%)
    Заголовок : AC3 5.1 @ 640 kbps
    Язык : English
    Default : Нет
    Forced : Нет

    Текст #1
    Идентификатор : 4
    Формат : UTF-8
    Идентификатор кодека : S_TEXT/UTF8
    Идентификатор кодека/Информация : UTF-8 Plain Text
    Язык : English
    Default : Нет
    Forced : Нет

    Текст #2
    Идентификатор : 5
    Формат : UTF-8
    Идентификатор кодека : S_TEXT/UTF8
    Идентификатор кодека/Информация : UTF-8 Plain Text
    Язык : French
    Default : Нет
    Forced : Нет

    Общее
    Уникальный идентификатор : 192192022039186774340865524106694018195 (0x9096D647B6A382D4BF0574001698C493)
    Полное имя : The.Company.2007.720p.BluRay.Rus.Eng.HDCLUBThe.Company.2007.Part3.720p.BluRay.Rus.Eng.HDCLUB.mkv
    Формат : Matroska
    Версия формата : Version 4 / Version 2
    Размер файла : 3,94 Гбайт
    Продолжительность : 1 ч. 31 м.
    Общий поток : 6195 Кбит/сек
    Дата кодирования : UTC 2014-03-27 14:01:12
    Программа кодирования : mkvmerge v6.8.0 (;Theme for Great Cities;) 64bit built on Mar 2 2014 21:34:26
    Библиотека кодирования : libebml v1.3.0 libmatroska v1.4.1

    Видео
    Идентификатор : 1
    Формат : AVC
    Формат/Информация : Advanced Video Codec
    Профиль формата : High@L5.1
    Параметр CABAC формата : Да
    Параметр ReFrames формата : 5 кадров
    Параметр GOP формата : N=1
    Идентификатор кодека : V_MPEG4/ISO/AVC
    Продолжительность : 1 ч. 31 м.
    Битрейт : 5360 Кбит/сек
    Ширина : 1280 пикселей
    Высота : 720 пикселей
    Соотношение сторон : 16:9
    Режим частоты кадров : Постоянный
    Частота кадров : 23,976 кадра/сек
    Цветовое пространство : YUV
    Субдискретизация насыщенности : 4:2:0
    Битовая глубина : 8 бит
    Тип развёртки : Прогрессивная
    Бит/(Пиксели*Кадры) : 0.243
    Размер потока : 3,33 Гбайт (85%)
    Заголовок : The Company 2007. Part 3
    Библиотека кодирования : x264 core 59 r839M 27c3071
    Настройки программы : cabac=1 / ref=5 / deblock=1:-3:-3 / analyse=0x3:0x133 / me=umh / subme=7 / me-prepass=1 / brdo=1 / mixed_ref=1 / me_range=16 / chroma_me=1 / trellis=0 / 8x8dct=1 / cqm=2 / deadzone=6,4 / chroma_qp_offset=0 / threads=6 / nr=0 / decimate=1 / mbaff=0 / fgo=10 / bframes=3 / b_pyramid=1 / b_adapt=1 / b_bias=0 / direct=3 / wpredb=1 / bime=1 / keyint=250 / keyint_min=25 / scenecut=40(pre) / rc=2pass / bitrate=5360 / ratetol=1.0 / rceq=;blurCplx^(1-qComp); / qcomp=1.00 / qpmin=10 / qpmax=51 / qpstep=4 / cplxblur=20.0 / qblur=0.5 / ip_ratio=1.40 / pb_ratio=1.15 / aq=2:0.60
    Язык : English
    Default : Да
    Forced : Нет

    Аудио #1
    Идентификатор : 2
    Формат : AC-3
    Формат/Информация : Audio Coding 3
    Расширение режима : CM (complete main)
    Параметр Endianness формата : Big
    Идентификатор кодека : A_AC3
    Продолжительность : 1 ч. 31 м.
    Вид битрейта : Постоянный
    Битрейт : 192 Кбит/сек
    Каналы : 2 канала
    Расположение каналов : Front: L R
    Частота : 48,0 КГц
    Битовая глубина : 16 бит
    Метод сжатия : С потерями
    Размер потока : 125 Мбайт (3%)
    Заголовок : AC3 2.0 @ 192 kbps - Флагман, DVD
    Язык : Russian
    Default : Да
    Forced : Нет

    Аудио #2
    Идентификатор : 3
    Формат : AC-3
    Формат/Информация : Audio Coding 3
    Расширение режима : CM (complete main)
    Параметр Endianness формата : Big
    Идентификатор кодека : A_AC3
    Продолжительность : 1 ч. 31 м.
    Вид битрейта : Постоянный
    Битрейт : 640 Кбит/сек
    Каналы : 6 каналов
    Расположение каналов : Front: L C R, Side: L R, LFE
    Частота : 48,0 КГц
    Битовая глубина : 16 бит
    Метод сжатия : С потерями
    Размер потока : 417 Мбайт (10%)
    Заголовок : AC3 5.1 @ 640 kbps
    Язык : English
    Default : Нет
    Forced : Нет

    Текст #1
    Идентификатор : 4
    Формат : UTF-8
    Идентификатор кодека : S_TEXT/UTF8
    Идентификатор кодека/Информация : UTF-8 Plain Text
    Заголовок : Forced
    Язык : Russian
    Default : Да
    Forced : Нет

    Текст #2
    Идентификатор : 5
    Формат : UTF-8
    Идентификатор кодека : S_TEXT/UTF8
    Идентификатор кодека/Информация : UTF-8 Plain Text
    Язык : English
    Default : Нет
    Forced : Нет

    Текст #3
    Идентификатор : 6
    Формат : UTF-8
    Идентификатор кодека : S_TEXT/UTF8
    Идентификатор кодека/Информация : UTF-8 Plain Text
    Язык : French
    Default : Нет
    Forced : Нет/code





    Скриншоты для ознакомления


    Релиз подготовил: by HPotter
    Размер скачиваемого торрента: 11.76 GB (12631138004 Bytes)

    Контора / The Company (2007) BDRip 720p от HDClub скачать через торрент бесплатно
    загрузка...
    Рейтинг →
     (голосов: 1, оценка 5/5, голосовать можно 1 раз )

    Другие торренты по теме:

  • Контора Кука - ЧЕК (2013) MP3 скачать через торрент бесплатно
  • Контора Кука - Средняя Волга (2014) MP3 скачать через торрент бесплатно
  • Контора Кука - РИО (2015) MP3
  • Контора Кука - Mein lieber friend (2017) MP3
  • Контора / Head Office (1986) DVDRip | A


    • Комментарии (0):

      Информация

      Информация

        Посетители, находящиеся в группе Гости, не могут оставлять комментарии в данной новости.

        ↓ Меню



        ↓ Опрос

        А Вы добавили сайт в закладки?
        Да
        Не


        Top 10 за месяц (Фильмы)