.
Авторизация | Регистрация
Хочешь лучшие торренты? Добавь свой email!
Добавить
» » Плетёный человек / The Wicker Man (1973) BDRip by msltel | P2 скачать через торрент бесплатно




    Плетёный человек / The Wicker Man (1973) BDRip by msltel | P2 скачать через торрент бесплатно

    Опубликовал: Админ | Дата: 27-02-2015, 11:10 | Просмотров: 326



    Русское название: Плетеный человек
    Русское название в мировом прокате: The Wicker Man
    Создали в: 1973
    Категория жанра: Ужасы, триллер, драма, детектив
    Снималось в: Великобритания, British Lion Film Corporation
    Главный режиссер: Робин Харди
    Актеры: Эдвард Вудворд, Кристофер Ли, Дайан Чиленто, Бритт Экланд, Ингрид Питт, Линдсей Кемп, Расселл Уотерс, Обри Моррис, Ирен Сантерс, Уолтер Карр, Йен Кэмпбелл, Лесли Блэкэтер, Рой Бойд, Питер Брюис, Барбара Рафферти, Джульетт Кэтзоу, Росс Кэмпбелл, Пенни Клюер, Майкл Коул, Кевин Коллинз, Джеральдин Каупер, Йен Катлер, Дональд Экклс, Мира Форсайт, Джон Хэллам, Элисон Хьюз, Чарльз Кирни, Фиона Кеннеди, Джон МакГрегор, Джимми МакКензи, Лесли Маки, Дженнифер Мартин, Бернард Мюррэй, Хелен Норман, Лоррэйн Питерс, Тони Роупер, Джон Шарп, Элизабет Синклер, Эндрю Томпкинс, Иэн Уилсон, Ричард Рен, Джон Янг, С. Ньютон Андерсон

    Сюжет фильма: На небольшой остров Саммерайленд, расположенный недалеко от Шотландии, для расследования исчезновения местной девочки прилетает сержант Хоуи, полицейский инспектор с большой земли и убежденный христианин. На острове, однако, он моментально сталкивается с холодной враждебностью местных жителей по отношению к его расследованию и к нему самому. Сначала все утверждают, что никогда не видели девочки, фотографию которой полицейский показывает жителям острова, что ничего о ней не знают, но через некоторое время Хоуи удается выяснить, что девочка такая на острове всё-таки была. С этого момента те же самые люди, что вначале утверждали, будто никогда её не видели, внезапно вспомнили. Действительно, была такая девочка в их рядах, но, к сожалению, полгода назад скончалась. Вскрыв её могилу, полицейский находит в гробу вместо трупа кроличью тушку…

    Качество фильма: BDRip
    Информация о видео: XviD, 1902 Кбит/с, 720x384
    Информация о звуке: Русский (АС3, 6 ch, 448 Кбит/с), английский (AC3, 2 ch, 192 Кбит/с)
    Размер скачиваемого торрента: 1.66 ГБ
    Время просмотра: 01:33:08
    Перевод текста: Профессиональный двухголосый
    Субтитры: Русские (на непереведённые места), английские

    Исходник: Lioness (кинозал)

    Сравнение с исходником



    Награды
    Сатурн, 1979 год
    Победитель (1):
    Лучший фильм ужасов

    Номинации (4):
    Лучший режиссер (Робин Харди)
    Лучший актер (Кристофер Ли)
    Лучший сценарий
    Лучшая музыка
    MediaInfo
    Общее
    Полное имя : D:VideoPletenyj chelovek.1973.XviD.BDRipPletenyj chelovek.1973.eng.srt
    Формат : SubRip
    Размер файла : 59,9 Кбайт

    Текст
    Формат : SubRip
    Метод сжатия : Без потерь

    Общее
    Полное имя : D:VideoPletenyj chelovek.1973.XviD.BDRipPletenyj chelovek.1973.Original.eng.ac3
    Формат : AC-3
    Формат/Информация : Audio Coding 3
    Размер файла : 128 Мбайт
    Продолжительность : 1 ч. 33 м.
    Режим общего битрейта : Постоянный
    Общий поток : 192 Кбит/сек

    Аудио
    Формат : AC-3
    Формат/Информация : Audio Coding 3
    Расширение режима : CM (complete main)
    Параметр Endianness формата : Big
    Продолжительность : 1 ч. 33 м.
    Вид битрейта : Постоянный
    Битрейт : 192 Кбит/сек
    Каналы : 2 канала
    Расположение каналов : Front: L R
    Частота : 48,0 КГц
    Битовая глубина : 16 бит
    Метод сжатия : С потерями
    Размер потока : 128 Мбайт (100%)

    Общее
    Полное имя : D:VideoPletenyj chelovek.1973.XviD.BDRipPletenyj chelovek.1973.rus.на непереведенные места.srt
    Формат : SubRip
    Размер файла : 4,31 Кбайт

    Текст
    Формат : SubRip
    Метод сжатия : Без потерь

    Общее
    Полное имя : D:VideoPletenyj chelovek.1973.XviD.BDRipPletenyj chelovek.1973.XviD.BDRip.avi
    Формат : AVI
    Формат/Информация : Audio Video Interleave
    Размер файла : 1,53 Гбайт
    Продолжительность : 1 ч. 33 м.
    Общий поток : 2359 Кбит/сек
    Программа кодирования : VirtualDubMod 1.5.10.2 (build 2540/release)
    Библиотека кодирования : VirtualDubMod build 2540/release

    Видео
    Идентификатор : 0
    Формат : MPEG-4 Visual
    Профиль формата : Advanced Simple@L5
    Параметр BVOP формата : 1
    Параметр QPel формата : Нет
    Параметр GMC формата : Без точки перехода
    Параметр матрицы формата : Default (H.263)
    Режим смешивания : Сжатый битовый поток
    Идентификатор кодека : XVID
    Идентификатор кодека/Подсказка : XviD
    Продолжительность : 1 ч. 33 м.
    Битрейт : 1902 Кбит/сек
    Ширина : 720 пикселей
    Высота : 384 пикселя
    Соотношение сторон : 1,85:1
    Частота кадров : 23,976 кадра/сек
    Цветовое пространство : YUV
    Субдискретизация насыщенности : 4:2:0
    Битовая глубина : 8 бит
    Тип развёртки : Прогрессивная
    Метод сжатия : С потерями
    Бит/(Пиксели*Кадры) : 0.287
    Размер потока : 1,24 Гбайт (81%)
    Библиотека кодирования : XviD 1.2.1 (UTC 2008-12-04)

    Аудио
    Идентификатор : 1
    Формат : AC-3
    Формат/Информация : Audio Coding 3
    Расширение режима : CM (complete main)
    Параметр Endianness формата : Big
    Идентификатор кодека : 2000
    Продолжительность : 1 ч. 33 м.
    Вид битрейта : Постоянный
    Битрейт : 448 Кбит/сек
    Каналы : 6 каналов
    Расположение каналов : Front: L C R, Side: L R, LFE
    Частота : 48,0 КГц
    Битовая глубина : 16 бит
    Метод сжатия : С потерями
    Размер потока : 298 Мбайт (19%)
    Выравнивание : Разделение по промежуткам
    Продолжительность промежутка : 42 мс. (1,00 видеокадр)
    Время предзагрузки промежутка : 500 мс.
    Скриншоты для ознакомления



    Залил: msltel
    Размер скачиваемого торрента: 1.66 GB (1782265798 Bytes)

    Плетёный человек / The Wicker Man (1973) BDRip by msltel | P2 скачать через торрент бесплатно
    загрузка...
    Рейтинг →
     (голосов: 1, оценка 3/5, голосовать можно 1 раз )

    Другие торренты по теме:

  • Плетёный человек / The Wicker Man (1973) BDRip 720p by msltel | P2
  • Плетёный человек / The Wicker Man (1973) BDRip 1080p by msltel | P2 скачать через торрент бесплатно


    • Комментарии (0):

      Информация

      Информация

        Посетители, находящиеся в группе Гости, не могут оставлять комментарии в данной новости.

        ↓ Меню



        ↓ Опрос

        А Вы добавили сайт в закладки?
        Да
        Не


        Top 10 за месяц (Фильмы)