.
Авторизация | Регистрация
Хочешь лучшие торренты? Добавь свой email!
Добавить
» » Клод в помощь / La strategie de la poussette (2012) HDRip от New-Team | лицензия скачать через торрент бесплатно




    Клод в помощь / La strategie de la poussette (2012) HDRip от New-Team | лицензия скачать через торрент бесплатно

    Опубликовал: Админ | Дата: 27-02-2015, 11:10 | Просмотров: 214



    Снималось в: Франция / Studio Canal, TF1, Cin?...

    Категория жанра: комедия
    Создали в: 2012
    Время просмотра: 01:29:39
    Перевод текста: Профессиональный (многоголосый закадровый)
    Субтитры подготовлены: нет
    Оригинальная аудиодорожка: нет

    Главный режиссер: Клеман Мишель / Cl?ment Michel

    Актеры: Рафаэль Персонас, Шарлотта Ле Бон, Жером Коммандёр, Камелия Джордана, Жюли Ферье, Франсуа Берлеан, Франсуа Роллин, Клеман Мишель, Балтазар Риззо, Энн Шаррье...

    Сюжет: Томас безответственен, и потому его бросает любимая девушка. Он настолько безответственен, что только год спустя понимает, насколько она ему дорога, но уже не может ничего исправить. И тут у него на руках оказывается младенец… Томас придумывает хитроумный план — он вернет свою девушку, сыграв роль ответственного папочки…



    Качество фильма: HDRip / Klod.v.pomoshj.2012.P.BDRip.720p_EnotBox.COM DVD5 R5
    Тип видео: AVI

    Информация о видео: 720x304 (2.35:1), 24.000 fps, XviD ~ 1025 kbps avg, 0.195 bit/pixel
    Информация о звуке: 48 kHz, Dolby MP3, 2 ch, 128 kbps, русский

    Раздача от:
    MediaInfo

    Общее
    Полное имя : Klod.v.pomosh.2012.P.HDRip.745MB_New-Team_by_avproh.avi
    Формат : AVI
    Формат/Информация : Audio Video Interleave
    Размер файла : 745 Мбайт
    Продолжительность : 1 ч. 29 м.
    Общий поток : 1162 Кбит/сек
    Программа кодирования : VirtualDubModRus 1.5.10.2 (build 2542/release)
    Библиотека кодирования : VirtualDubMod build 2542/release

    Видео
    Идентификатор : 0
    Формат : MPEG-4 Visual
    Профиль формата : Advanced Simple@L5
    Параметр BVOP формата : 1
    Параметр QPel формата : Нет
    Параметр GMC формата : Без точки перехода
    Параметр матрицы формата : Выборочная
    Идентификатор кодека : XVID
    Идентификатор кодека/Подсказка : XviD
    Продолжительность : 1 ч. 29 м.
    Битрейт : 1025 Кбит/сек
    Ширина : 720 пикселей
    Высота : 304 пикселя
    Соотношение сторон : 2,35:1
    Частота кадров : 24,000 кадра/сек
    Цветовое пространство : YUV
    Субдискретизация насыщенности : 4:2:0
    Битовая глубина : 8 бит
    Тип развёртки : Прогрессивная
    Метод сжатия : С потерями
    Бит/(Пиксели*Кадры) : 0.195
    Размер потока : 657 Мбайт (88%)
    Библиотека кодирования : XviD 73

    Аудио
    Идентификатор : 1
    Формат : MPEG Audio
    Версия формата : Version 1
    Профиль формата : Layer 3
    Режим : Joint stereo
    Идентификатор кодека : 55
    Идентификатор кодека/Подсказка : MP3
    Продолжительность : 1 ч. 29 м.
    Вид битрейта : Постоянный
    Битрейт : 128 Кбит/сек
    Каналы : 2 канала
    Частота : 48,0 КГц
    Метод сжатия : С потерями
    Размер потока : 82,0 Мбайт (11%)
    Выравнивание : Соединение по промежуткам
    Продолжительность промежутка : 42 мс. (1,00 видеокадр)
    Время предзагрузки промежутка : 504 мс.

    Скриншоты для ознакомления:



    Залил: avproh
    Размер скачиваемого торрента: 744.97 MB (781160448 Bytes)

    Клод в помощь / La strategie de la poussette (2012) HDRip от New-Team | лицензия скачать через торрент бесплатно
    загрузка...
    Рейтинг →
     (голосов: 1, оценка 4/5, голосовать можно 1 раз )

    Другие торренты по теме:

  • Клод в помощь / La strategie de la poussette (2012) DVD5 R5 от New-Team | лицензия скачать через торрент бесплатно
  • Клод в помощь / La strategie de la poussette (2012) HDRip-AVC от New-Team | лицензия скачать через торрент бесплатно
  • Клод в помощь / La strategie de la poussette (2012) BDRip 1080p от New-Team | лицензия скачать через торрент бесплатно
  • Клод в помощь / La strategie de la poussette (2012) BDRip 720p от New-Team | лицензия скачать через торрент бесплатно


    • Комментарии (0):

      Информация

      Информация

        Посетители, находящиеся в группе Гости, не могут оставлять комментарии в данной новости.

        ↓ Меню



        ↓ Опрос

        А Вы добавили сайт в закладки?
        Да
        Не


        Top 10 за месяц (Фильмы)