.
Авторизация | Регистрация
Хочешь лучшие торренты? Добавь свой email!
Добавить
» » Презренный / Scorned (2013) BDRip 720p от CINEMANIA | L2 скачать через торрент бесплатно




    Презренный / Scorned (2013) BDRip 720p от CINEMANIA | L2 скачать через торрент бесплатно

    Опубликовал: Админ | Дата: 27-02-2015, 11:10 | Просмотров: 204



    Детально о кино
    Русское название: Презренный
    Русское название в мировом прокате: Scorned
    Создали в: 2013
    Категория жанра: триллер
    Главный режиссер: Марк Джонс
    Актеры: Вива Бьянка, Бруклин Брокау, Даг Драклер, Денис Гласс, Рич Баттиста, Марк Джонс, Сэди Кац, Скотт Книсли, Джо Курак, АннаЛинн МакКорд

    Сюжет фильма:
    Кевин приглашает свою возлюбленную Сэди провести вместе с ним романтичный уик-энд в принадлежащем ему домике, расположенном на живописном озерном берегу. Поначалу они отлично проводят выходные, но затем Сэди случайно становится известно об измене Кевина. Оказывается, долгое время парень крутил роман с её лучшей подругой! Узнав об этом, Сэди приходит в ярость и решает отомстить и своему неверному партнеру и вероломной подруге...



    Снималось в: США
    Время просмотра: 01:26:22
    Тип перевода: Любительское (двухголосое) DeadSno den904
    перевод на русский язык Antonio

    Файл
    Тип видео: MKV
    Качество фильма: BDRip 720p PHD
    Информация о видео: 5762 kb/s, 1280x720
    Информация о звуке: Russian / English: DTS, 1510 kb/s (6 ch)
    Субтитры: English
    Дополнительно: Сохранены оригинальные чаптеры как на Blu-ray
    Размер скачиваемого торрента: 5.41 GB
    Скачать: Сэмпл

    Релиз группы:



    NFO
    Общее
    Scorned.2013.Blu.Ray.720p.CINEMANIA.mkv
    Формат : Matroska
    Версия формата : Version 4 / Version 2
    Размер файла : 5,41 Гбайт
    Продолжительность : 1 ч. 26 м.
    Общий поток : 8959 Кбит/сек
    Название фильма : Release Group CINEMANIA
    Дата кодирования : UTC 2014-04-02 17:45:02
    Программа кодирования : mkvmerge v6.8.0 (;Theme for Great Cities;) 64bit built on Mar 2 2014 21:34:26
    Библиотека кодирования : libebml v1.3.0 libmatroska v1.4.1

    Видео
    Идентификатор : 1
    Формат : AVC
    Формат/Информация : Advanced Video Codec
    Профиль формата : High@L4.1
    Параметр CABAC формата : Да
    Параметр ReFrames формата : 9 кадров
    Идентификатор кодека : V_MPEG4/ISO/AVC
    Продолжительность : 1 ч. 26 м.
    Битрейт : 5762 Кбит/сек
    Ширина : 1280 пикселей
    Высота : 720 пикселей
    Соотношение сторон : 16:9
    Режим частоты кадров : Постоянный
    Частота кадров : 23,976 кадра/сек
    Цветовое пространство : YUV
    Субдискретизация насыщенности : 4:2:0
    Битовая глубина : 8 бит
    Тип развёртки : Прогрессивная
    Бит/(Пиксели*Кадры) : 0.261
    Размер потока : 3,48 Гбайт (64%)
    Заголовок : Release Group CINEMANIA
    Язык : English
    Default : Да
    Forced : Нет

    Аудио #1
    Идентификатор : 2
    Формат : DTS
    Формат/Информация : Digital Theater Systems
    Режим : 16
    Параметр Endianness формата : Big
    Идентификатор кодека : A_DTS
    Продолжительность : 1 ч. 26 м.
    Вид битрейта : Постоянный
    Битрейт : 1510 Кбит/сек
    Каналы : 6 каналов
    Расположение каналов : Front: L C R, Side: L R, LFE
    Частота : 48,0 КГц
    Битовая глубина : 24 бит
    Метод сжатия : С потерями
    Размер потока : 933 Мбайт (17%)
    Заголовок : Влад и Снежинка
    Язык : Russian
    Default : Да
    Forced : Да

    Аудио #2
    Идентификатор : 3
    Формат : DTS
    Формат/Информация : Digital Theater Systems
    Режим : 16
    Параметр Endianness формата : Big
    Идентификатор кодека : A_DTS
    Продолжительность : 1 ч. 26 м.
    Вид битрейта : Постоянный
    Битрейт : 1510 Кбит/сек
    Каналы : 6 каналов
    Расположение каналов : Front: L C R, Side: L R, LFE
    Частота : 48,0 КГц
    Битовая глубина : 24 бит
    Метод сжатия : С потерями
    Размер потока : 933 Мбайт (17%)
    Язык : English
    Default : Нет
    Forced : Нет

    Текст
    Идентификатор : 4
    Формат : UTF-8
    Идентификатор кодека : S_TEXT/UTF8
    Идентификатор кодека/Информация : UTF-8 Plain Text
    Язык : English
    Default : Нет
    Forced : Нет

    Меню
    00:00:00.000 : en:00:00:00.000
    00:09:50.131 : en:00:09:50.131
    00:18:44.498 : en:00:18:44.498
    00:28:06.560 : en:00:28:06.560
    00:36:44.536 : en:00:36:44.536
    00:43:12.882 : en:00:43:12.882
    00:50:34.740 : en:00:50:34.740
    00:56:38.353 : en:00:56:38.353
    01:06:42.248 : en:01:06:42.248
    01:11:03.885 : en:01:11:03.885
    01:15:26.647 : en:01:15:26.647
    01:21:30.302 : en:01:21:30.302

    Залил: DGEKIGAN
    Размер скачиваемого торрента: 5.41 GB (5803609759 Bytes)

    Презренный / Scorned (2013) BDRip 720p от CINEMANIA | L2 скачать через торрент бесплатно
    загрузка...
    Рейтинг →
     (голосов: 1, оценка 4/5, голосовать можно 1 раз )

    Другие торренты по теме:

  • Презренный / Scorned (2013) BDRip 1080p от CINEMANIA | L2 скачать через торрент бесплатно
  • Презренный / Scorned (2013) HDRip | L2
  • Презренный / В гневе я страшна / Scorned (2013) BDRemux 1080p от NovaLan скачать через торрент бесплатно
  • OST - Презренный / Scorned скачать через торрент бесплатно


    • Комментарии (0):

      Информация

      Информация

        Посетители, находящиеся в группе Гости, не могут оставлять комментарии в данной новости.

        ↓ Меню



        ↓ Опрос

        А Вы добавили сайт в закладки?
        Да
        Не


        Top 10 за месяц (Фильмы)