.
Авторизация | Регистрация
Хочешь лучшие торренты? Добавь свой email!
Добавить
» » Летчик Киви / Kiwi Flyer / Derby Dogs (2012) BDRip-AVC | Нтв скачать торрент бесплатно




    Летчик Киви / Kiwi Flyer / Derby Dogs (2012) BDRip-AVC | Нтв скачать торрент бесплатно

    Опубликовал: Админ | Дата: 27-02-2015, 11:10 | Просмотров: 196



    Детально о кино
    Русское название: Летчик Киви
    Русское название в мировом прокате: Kiwi Flyer / Derby Dogs
    Создали в: 2012
    Категория жанра: Комедия, драма, семейный
    Главный режиссер: Тони Симпсон
    Актеры: Эдвард Холл, Тикирау Хэтауэй, Винс Мартин, Тэнди Райт, Даи Хенвуд, Майер ван Гослига, Дуг Коллинг, Джейн Уинтер, Дэвид де Тьери, Мэтт Френч

    Сюжет фильма:
    Герой фильма – мальчик мечтающий участвовать в популярных ежегодных гонках вагонеток, в которых принимал участие ещё его дедушка. Отец решает помочь сыну – конструирует вагонетку под названием Летающая киви. Вскоре он погибает в аварии, не успев завершить свой проект. Спустя год мальчик, несмотря на запрет матери, решает принять участие в гонках в память об отце и собирает команду…




    Снималось в: Новая Зеландия
    Киностудия: Kiwi Flyer Productions Limited
    Время просмотра: 01:27:04
    Перевод текста: Профессиональное (двухголосое) Нтв

    Файл
    Кодек для видео: h.264
    Качество фильма: BDRip-AVC
    Информация о видео: AVC, 1024 x 576, ~2011 kbps
    Информация о звуке: Русский: AC-3, 2 ch, 192 kbps / Английский: AC-3, 6 ch, 448 kbps
    Субтитры: Русский kitmur

    Семпл

    Скриншоты для ознакомления
    MI
    Общее
    Уникальный идентификатор : 168348648403719580577546155723716462494 (0x7EA6C532C2870C1E037BA147C20E879E)
    Полное имя : H:Летчик Киви Kiwi Flyer Derby Dogs (2012) BDRip-AVCDerby.Dogs.2012.BDRip-AVC.mkv
    Формат : Matroska
    Версия формата : Version 2
    Размер файла : 1,65 Гбайт
    Продолжительность : 1 ч. 27 м.
    Режим общего битрейта : Переменный
    Общий поток : 2705 Кбит/сек
    Программа кодирования : Lavf51.12.1
    Библиотека кодирования : Lavf51.12.1

    Видео
    Идентификатор : 1
    Формат : AVC
    Формат/Информация : Advanced Video Codec
    Профиль формата : Baseline@L3.1
    Параметр CABAC формата : Нет
    Параметр ReFrames формата : 1 кадр
    Параметр GOP формата : M=1, N=12
    Идентификатор кодека : V_MPEG4/ISO/AVC
    Продолжительность : 1 ч. 27 м.
    Вид битрейта : Переменный
    Битрейт : 2011 Кбит/сек
    Максимальный битрейт : 3090 Кбит/сек
    Ширина : 1024 пикселя
    Высота : 576 пикселей
    Соотношение сторон : 16:9
    Режим частоты кадров : Постоянный
    Частота кадров : 23,976 кадра/сек
    Частота кадров в оригинале : 24,000 кадра/сек
    Цветовое пространство : YUV
    Субдискретизация насыщенности : 4:2:0
    Битовая глубина : 8 бит
    Тип развёртки : Прогрессивная
    Бит/(Пиксели*Кадры) : 0.142
    Размер потока : 1,22 Гбайт (74%)
    Язык : English
    Default : Да
    Forced : Нет

    Аудио #1
    Идентификатор : 2
    Формат : AC-3
    Формат/Информация : Audio Coding 3
    Расширение режима : CM (complete main)
    Параметр Endianness формата : Big
    Идентификатор кодека : A_AC3
    Продолжительность : 1 ч. 27 м.
    Вид битрейта : Постоянный
    Битрейт : 192 Кбит/сек
    Каналы : 2 канала
    Расположение каналов : Front: L R
    Частота : 48,0 КГц
    Битовая глубина : 16 бит
    Метод сжатия : С потерями
    Размер потока : 120 Мбайт (7%)
    Язык : Russian
    Default : Да
    Forced : Нет

    Аудио #2
    Идентификатор : 4
    Формат : AC-3
    Формат/Информация : Audio Coding 3
    Расширение режима : CM (complete main)
    Параметр Endianness формата : Big
    Идентификатор кодека : A_AC3
    Продолжительность : 1 ч. 27 м.
    Вид битрейта : Постоянный
    Битрейт : 448 Кбит/сек
    Каналы : 6 каналов
    Расположение каналов : Front: L C R, Side: L R, LFE
    Частота : 48,0 КГц
    Битовая глубина : 16 бит
    Метод сжатия : С потерями
    Размер потока : 279 Мбайт (17%)
    Язык : English
    Default : Да
    Forced : Нет

    Текст
    Идентификатор : 3
    Формат : UTF-8
    Идентификатор кодека : S_TEXT/UTF8
    Идентификатор кодека/Информация : UTF-8 Plain Text
    Язык : Russian
    Default : Да
    Forced : Нет

    Размер скачиваемого торрента: 1.65 GB (1766351016 Bytes)

    Летчик Киви / Kiwi Flyer / Derby Dogs (2012) BDRip-AVC | Нтв торрент скачать бесплатно
    загрузка...
    Рейтинг →
     (голосов: 1, оценка 4/5, голосовать можно 1 раз )

    Другие торренты по теме:

  • Летчик Киви / Kiwi Flyer / Derby Dogs (2012) WEB-DL 720p от CINEMANIA | НТВ скачать через торрент бесплатно
  • Летчик Киви / Kiwi Flyer / Derby Dogs (2012) WEB-DLRip | P2
  • Летчик Киви / Kiwi Flyer / Derby Dogs (2012) BDRip 1080p от CINEMANIA | НТВ скачать через торрент бесплатно
  • Летчик Киви / Kiwi Flyer / Derby Dogs (2012) BDRip 720p от CINEMANIA | НТВ скачать через торрент бесплатно


    • Комментарии (0):

      Информация

      Информация

        Посетители, находящиеся в группе Гости, не могут оставлять комментарии в данной новости.

        ↓ Меню



        ↓ Опрос

        А Вы добавили сайт в закладки?
        Да
        Не


        Top 10 за месяц (Фильмы)