.
Авторизация | Регистрация
Хочешь лучшие торренты? Добавь свой email!
Добавить
» » Близнецы / Twins (1988) HDTVRip от New-Team | Р скачать торрент бесплатно




    Близнецы / Twins (1988) HDTVRip от New-Team | Р скачать торрент бесплатно

    Опубликовал: Админ | Дата: 27-02-2015, 11:10 | Просмотров: 210


    Снималось в: США
    Создали в: Universal Pictures

    Категория жанра: комедия, криминал
    Создали в: 1988
    Время просмотра: 01:46:41

    Перевод текста: Профессиональный (многоголосый, закадровый)
    Оригинальная аудиодорожка: нет
    Субтитры подготовлены: нет

    Главный режиссер: Айвен Райтман / Ivan Reitman

    Актеры:
    Арнольд Шварценеггер (Julius Benedict), Дэнни ДеВито (Vincent Benedict), Келли Престон (Marnie Mason), Хлоя Уэбб (Linda Mason), Бонни Бартлетт (Mary Ann Benedict), Трей Уилсон (Beetroot McKinley), Маршалл Белл (Webster), Дэвид Карузо (Al Greco), Хью О’Брайан (Granger), Нехемия Персофф (Mitchell Traven), Мори Чайкин (Burt Klane), Тони Джей (Werner)...

    Сюжет:
    Неожиданный оборот принимает генетический эксперимент, во время которого новорожденных близнецов, которые, кстати, совершенно непохожи друг на друга, разлучают на долгие годы. Но несчастные братья наконец встречаются. Джулиус, образованный, но совершенно не знающий жизни гигант с добрым сердцем и Винсент, коротышка с неистребимой жаждой денег и женщин. В компании подружек и преследующего их наемного убийцы братья отправляются в путешествие по стране на поиски своей матери — но в конце концов находят гораздо большее. Только мать может сказать им правду...




    Исходник: HDTVRip 1080i
    Тип релиза: HDTVRip
    Контейнер: AVI

    Информация о видео: 640x352 (16:9), 23,976 fps, XviD ~ 840 kbps avg, 0.155 bit/pixel
    Информация о звуке: 48 kHz, MP3 2.0, 128 kbps

    Раздача от:
    MediaInfo

    Общее
    Полное имя : Bliznecy.1988.HDTVRip-745_New-team_by_AVP_Studio.avi
    Формат : AVI
    Формат/Информация : Audio Video Interleave
    Размер файла : 746 Мбайт
    Продолжительность : 1 ч. 46 м.
    Общий поток : 977 Кбит/сек
    Программа кодирования : VirtualDubModRus 1.5.10.2 (build 2542/release)
    Библиотека кодирования : VirtualDubMod build 2542/release

    Видео
    Идентификатор : 0
    Формат : MPEG-4 Visual
    Профиль формата : Advanced Simple@L5
    Параметр BVOP формата : 1
    Параметр QPel формата : Нет
    Параметр GMC формата : Без точки перехода
    Параметр матрицы формата : Выборочная
    Идентификатор кодека : XVID
    Идентификатор кодека/Подсказка : XviD
    Продолжительность : 1 ч. 46 м.
    Битрейт : 840 Кбит/сек
    Ширина : 640 пикселей
    Высота : 352 пикселя
    Соотношение сторон : 16:9
    Частота кадров : 23,976 кадра/сек
    Цветовое пространство : YUV
    Субдискретизация насыщенности : 4:2:0
    Битовая глубина : 8 бит
    Тип развёртки : Прогрессивная
    Метод сжатия : С потерями
    Бит/(Пиксели*Кадры) : 0.155
    Размер потока : 641 Мбайт (86%)
    Библиотека кодирования : XviD 73

    Аудио
    Идентификатор : 1
    Формат : MPEG Audio
    Версия формата : Version 1
    Профиль формата : Layer 3
    Идентификатор кодека : 55
    Идентификатор кодека/Подсказка : MP3
    Продолжительность : 1 ч. 46 м.
    Вид битрейта : Постоянный
    Битрейт : 128 Кбит/сек
    Каналы : 2 канала
    Частота : 48,0 КГц
    Метод сжатия : С потерями
    Размер потока : 97,7 Мбайт (13%)
    Выравнивание : Соединение по промежуткам
    Продолжительность промежутка : 42 мс. (1,00 видеокадр)
    Время предзагрузки промежутка : 504 мс.
    Библиотека кодирования : LAME3.99r
    Залил: AVPStudio
    Размер скачиваемого торрента: 745.65 MB (781875200 Bytes)


    Близнецы / Twins (1988) HDTVRip от New-Team | Р торрент скачать бесплатно
    загрузка...
    Рейтинг →
     (голосов: 1, оценка 3/5, голосовать можно 1 раз )

    Другие торренты по теме:

  • Близнецы / Twins (1988) HDTVRip | Р
  • Мишель Фейбер - Близнецы Фаренгейт (2010) MP3
  • Такие разные близнецы / Jack and Jill (2011) BDRip-AVC от leonardo 59
  • Семейные истории: Близнецы / Family Tales: The Sisters (2013) PC
  • Башни-близнецы / World Trade Center (2006) DVD5 от Youtracker | D | Сжатый
  • Близнецы драконы / Twin Dragons / Shuang long hui (1992) HDRip от Youtracker | КПК
  • Близнецы-убийцы / Seconds Apart (2010) BDRip-AVC от ExKinoRay | P, L1
  • Близнецы-убийцы / Seconds Apart (2010) BDRip от ExKinoRay | P


    • Комментарии (0):

      Информация

      Информация

        Посетители, находящиеся в группе Гости, не могут оставлять комментарии в данной новости.

        ↓ Меню



        ↓ Опрос

        А Вы добавили сайт в закладки?
        Да
        Не


        Top 10 за месяц (Фильмы)