.
Авторизация | Регистрация
Хочешь лучшие торренты? Добавь свой email!
Добавить
» » Невероятная жизнь Уолтера Митти / The Secret Life of Walter Mitty (2013) BDRip-AVC | Лицензия скачать через торрент бесплатно




    Невероятная жизнь Уолтера Митти / The Secret Life of Walter Mitty (2013) BDRip-AVC | Лицензия скачать через торрент бесплатно

    Опубликовал: Админ | Дата: 27-02-2015, 11:10 | Просмотров: 225



    Детально о кино
    Русское название: Невероятная жизнь Уолтера Митти
    Русское название в мировом прокате: The Secret Life of Walter Mitty
    Создали в: 2013
    Категория жанра: приключения, мелодрама, драма, комедия, фэнтези

    Главный режиссер: Бен Стиллер
    Актеры: Бен Стиллер,Кристен Уиг, Джон Дэйли, Кэтрин Хан, Теренс Берни Хайнс, Адам Скотт, Пол Фицджералд, Грэйс Рекс, Алекс Анфанджер, Аманда Нафтон

    Сюжет фильма: Прекратите мечтать. Начните жить
    Кто сказал, что в сердце маленького человека не могут жить великие мечты? Даже скромному и незаметному служащему хочется иногда совершить пусть безумные, но геройские поступки, поверить в свою силу и мужество. Почему всех спасать должны исключительно супермены?




    Снималось в: США
    Киностудия: 20th Century Fox Film Corporation, Red House Entertainment, Truenorth Productions
    Время просмотра: 01:54:34
    Перевод текста: Дублированный Лицензия
    Субтитры: нет

    Файл
    Кодек для видео: x264
    Качество фильма: BDRip-AVC
    Информация о видео: 960х400 (2.40:1), 23,976fps, 1628Kbps, 0.177 Bits/(Pixel*Frame)
    Информация о звуке : AC3, 2ch, 48kHz, 192kbps
    Семпл

    MI
    ormat : AVC
    Format/Info : Advanced Video Codec
    Format profile : High@L4.1
    Format settings, CABAC : Yes
    Format settings, ReFrames : 10 frames
    Codec ID : V_MPEG4/ISO/AVC
    Duration : 1h 54mn
    Bit rate : 1 628 Kbps
    Width : 960 pixels
    Height : 400 pixels
    Display aspect ratio : 2.40:1
    Frame rate mode : Constant
    Frame rate : 23.976 fps
    Color space : YUV
    Chroma subsampling : 4:2:0
    Bit depth : 8 bits
    Scan type : Progressive
    Bits/(Pixel*Frame) : 0.177
    Stream size : 1.28 GiB (87%)
    Writing library : x264 core 142 r2409 42 04be48a tMod 8-bit@all X86
    Encoding settings : cabac=1 / ref=10 / deblock=1:-2:-1 / analyse=0x3:0x133 / me=umh / subme=11 / psy=1 / fade_compensate=0.00 / psy_rd=1.00:0.05 / mixed_ref=1 / me_range=32 / chroma_me=1 / trellis=2 / 8x8dct=1 / cqm=0 / deadzone=21,11 / fast_pskip=0 / chroma_qp_offset=-3 / threads=6 / lookahead_threads=1 / sliced_threads=0 / nr=0 / decimate=1 / interlaced=0 / bluray_compat=0 / constrained_intra=0 / fgo=0 / bframes=12 / b_pyramid=2 / b_adapt=2 / b_bias=0 / direct=3 / weightb=1 / open_gop=0 / weightp=2 / keyint=240 / keyint_min=23 / scenecut=40 / intra_refresh=0 / rc_lookahead=60 / rc=2pass / mbtree=1 / bitrate=1628 / ratetol=1.0 / qcomp=0.65 / qpmin=0:0:0 / qpmax=69:69:69 / qpstep=4 / cplxblur=20.0 / qblur=0.5 / vbv_maxrate=50000 / vbv_bufsize=62500 / nal_hrd=none / filler=0 / ip_ratio=1.40 / aq=3:1.00 / aq-sensitivity=10.00 / aq-factor=1.00:1.00:1.00 / aq2=0 / aq3=0
    Default : Yes
    Forced : No

    Audio
    ID : 2
    Format : AC-3
    Format/Info : Audio Coding 3
    Mode extension : CM (complete main)
    Format settings, Endianness : Big
    Codec ID : A_AC3
    Duration : 1h 54mn
    Bit rate mode : Constant
    Bit rate : 192 Kbps
    Channel count : 2 channels
    Channel positions : Front: L R
    Sampling rate : 48.0 KHz
    Bit depth : 16 bits
    Compression mode : Lossy
    Stream size : 157 MiB (11%)
    Title : DUB
    Language : Russian
    Default : Yes
    Forced : No
    Скриншоты для ознакомления

    Размер скачиваемого торрента: 1.46 GB (1565193154 Bytes)

    Невероятная жизнь Уолтера Митти / The Secret Life of Walter Mitty (2013) BDRip-AVC | Лицензия скачать через торрент бесплатно
    загрузка...
    Рейтинг →
     (голосов: 1, оценка 4/5, голосовать можно 1 раз )

    Другие торренты по теме:

  • Невероятная жизнь Уолтера Митти / The Secret Life of Walter Mitty (2013) TS скачать через торрент бесплатно
  • Невероятная жизнь Уолтера Митти / The Secret Life of Walter Mitty (2013) DVDScr | Звук с TS
  • OST - Невероятная жизнь Уолтера Митти / The Secret Life Of Walter Mitty (2013) MP3
  • Невероятная жизнь Уолтера Митти / The Secret Life of Walter Mitty (2013) WEB-DLRip-AVC | Звук с TS скачать через торрент бесплатно
  • Невероятная жизнь Уолтера Митти / The Secret Life of Walter Mitty (2013) WEB-DL 720p | Звук с TS скачать через торрент бесплатно
  • Невероятная жизнь Уолтера Митти / The Secret Life of Walter Mitty (2013) WEB-DLRip | Звук с TS скачать через торрент бесплатно
  • Невероятная жизнь Уолтера Митти / The Secret Life of Walter Mitty (2013) WEB-DLRip | Baibako скачать через торрент бесплатно
  • Невероятная жизнь Уолтера Митти / The Secret Life of Walter Mitty (2013) WEB-DLRip от New-Team | P | Baibako


    • Комментарии (0):

      Информация

      Информация

        Посетители, находящиеся в группе Гости, не могут оставлять комментарии в данной новости.

        ↓ Меню



        ↓ Опрос

        А Вы добавили сайт в закладки?
        Да
        Не


        Top 10 за месяц (Фильмы)