.
Авторизация | Регистрация
Хочешь лучшие торренты? Добавь свой email!
Добавить
» » Самоволка / Леон / Львиное сердце / Lionheart (1990) WEB-DLRip-AVC | P, A скачать через торрент бесплатно




    Самоволка / Леон / Львиное сердце / Lionheart (1990) WEB-DLRip-AVC | P, A скачать через торрент бесплатно

    Опубликовал: Админ | Дата: 27-02-2015, 11:10 | Просмотров: 309


    Детально о кино
    Русское название: Самоволка
    Русское название в мировом прокате: Lionheart
    Снималось в: США
    Киностудия: Imperial Entertainment Corporation, Guild, Sunil
    Категория жанра: боевик, драма, спорт
    Создали в: 1990
    Время просмотра: 01:45:02
    Перевод текста: Профессиональный (многоголосый закадровый), Авторский (одноголосый закадровый) Андрей Гаврилов
    Субтитры подготовлены: Нет
    Оригинальная аудиодорожка: Английский

    Главный режиссер: Шелдон Леттич / Sheldon Lettich

    Актеры: Жан-Клод Ван Дамм, Хэррисон Пэйдж, Дебора Реннард, Лиза Пелайкэн, Эшли Джонсон, Брайан Томпсон

    Сюжет:
    Узнав, что его брат в Лос-Анджелесе серьезно ранен, Лайон Голтье дезертирует из французского иностранного легиона, базирующегося в отдаленном районе Северной Африки.
    Скрываясь от двух боевиков-легионеров, которым дан приказ вернуть его любой ценой, Лайон против своего желания становится участником незаконных боев современных гладиаторов, дерущихся голыми руками для развлечения богатых. Ему нужны деньги, чтобы помочь семье своего брата.




    Файл
    Качество фильма: WEB-DLRip (AVC)
    Тип видео: MKV
    Информация о видео: MPEG-4 AVC, 2795 Кбит/с, 1024x550, 23.976 кадр/с
    Информация о звуке 1: 48 kHz, AC3 Dolby Digital, 2/0 (L,R) ch, ~192 kbps - Профессиональный многоголосый
    Информация о звуке 2: 48 kHz, AC3 Dolby Digital, 2/0 (L,R) ch, ~192 kbps - Гаврилов
    Информация о звуке 3: 48 kHz, AC3 Dolby Digital, 2/0 (L,R) ch, ~192 kbps - Оригинал

    MediaInfo
    Формат : Matroska
    Версия формата : Version 2
    Размер файла : 2,47 Гбайт
    Продолжительность : 1 ч. 45 м.
    Общий поток : 3372 Кбит/сек
    Название фильма : Самоволка | Lionheart (Unrated) 1990 -= WEBDL-Rip (AVC) =-
    Дата кодирования : UTC 2014-03-31 05:15:07
    Программа кодирования : mkvmerge v6.6.0 (;The Edge Of The In Between;) built on Dec 1 2013 17:55:00
    Библиотека кодирования : libebml v1.3.0 libmatroska v1.4.1

    Видео
    Идентификатор : 1
    Формат : AVC
    Формат/Информация : Advanced Video Codec
    Профиль формата : High@L4.1
    Параметр CABAC формата : Да
    Параметр ReFrames формата : 8 кадров
    Идентификатор кодека : V_MPEG4/ISO/AVC
    Продолжительность : 1 ч. 45 м.
    Битрейт : 2795 Кбит/сек
    Ширина : 1024 пикселя
    Высота : 550 пикселей
    Соотношение сторон : 1,85:1
    Режим частоты кадров : Постоянный
    Частота кадров : 23,976 кадра/сек
    Цветовое пространство : YUV
    Субдискретизация насыщенности : 4:2:0
    Битовая глубина : 8 бит
    Тип развёртки : Прогрессивная
    Бит/(Пиксели*Кадры) : 0.207
    Размер потока : 2,00 Гбайт (81%)
    Библиотека кодирования : x264 core 133 r2334 a3ac64b
    Настройки программы : cabac=1 / ref=8 / deblock=1:-3:-3 / analyse=0x3:0x113 / me=umh / subme=10 / psy=1 / psy_rd=1.00:0.20 / mixed_ref=1 / me_range=32 / chroma_me=1 / trellis=2 / 8x8dct=1 / cqm=0 / deadzone=21,11 / fast_pskip=0 / chroma_qp_offset=-3 / threads=3 / lookahead_threads=1 / sliced_threads=0 / nr=0 / decimate=0 / interlaced=0 / bluray_compat=0 / constrained_intra=0 / bframes=10 / b_pyramid=2 / b_adapt=2 / b_bias=0 / direct=3 / weightb=1 / open_gop=0 / weightp=2 / keyint=240 / keyint_min=23 / scenecut=40 / intra_refresh=0 / rc_lookahead=40 / rc=2pass / mbtree=0 / bitrate=2795 / ratetol=1.0 / qcomp=0.60 / qpmin=0 / qpmax=69 / qpstep=4 / cplxblur=20.0 / qblur=0.5 / vbv_maxrate=50000 / vbv_bufsize=50000 / nal_hrd=none / ip_ratio=1.40 / pb_ratio=1.30 / aq=1:1.00
    Язык : English
    Default : Да
    Forced : Да

    Аудио #1
    Идентификатор : 2
    Формат : AC-3
    Формат/Информация : Audio Coding 3
    Расширение режима : CM (complete main)
    Параметр Endianness формата : Big
    Идентификатор кодека : A_AC3
    Продолжительность : 1 ч. 45 м.
    Вид битрейта : Постоянный
    Битрейт : 192 Кбит/сек
    Каналы : 2 канала
    Расположение каналов : Front: L R
    Частота : 48,0 КГц
    Битовая глубина : 16 бит
    Метод сжатия : С потерями
    Размер потока : 144 Мбайт (6%)
    Заголовок : Многоголосый Ren-TV AC3 2.0 @ 192 kbps
    Язык : Russian
    Default : Да
    Forced : Да

    Аудио #2
    Идентификатор : 3
    Формат : AC-3
    Формат/Информация : Audio Coding 3
    Расширение режима : CM (complete main)
    Параметр Endianness формата : Big
    Идентификатор кодека : A_AC3
    Продолжительность : 1 ч. 45 м.
    Вид битрейта : Постоянный
    Битрейт : 192 Кбит/сек
    Каналы : 2 канала
    Расположение каналов : Front: L R
    Частота : 48,0 КГц
    Битовая глубина : 16 бит
    Метод сжатия : С потерями
    Размер потока : 144 Мбайт (6%)
    Заголовок : Авторский Андрей Гаврилов AC3 2.0 @ 192 kbps
    Язык : Russian
    Default : Нет
    Forced : Нет

    Аудио #3
    Идентификатор : 4
    Формат : AC-3
    Формат/Информация : Audio Coding 3
    Расширение режима : CM (complete main)
    Параметр Endianness формата : Big
    Идентификатор кодека : A_AC3
    Продолжительность : 1 ч. 45 м.
    Вид битрейта : Постоянный
    Битрейт : 192 Кбит/сек
    Каналы : 2 канала
    Расположение каналов : Front: L R
    Частота : 48,0 КГц
    Битовая глубина : 16 бит
    Метод сжатия : С потерями
    Размер потока : 144 Мбайт (6%)
    Заголовок : AC3 2.0 @ 192 kbps
    Язык : English
    Default : Нет
    Forced : Нет

    Меню
    00:00:00.000 : en:Sugar and Gasoline (Main Titles)
    00:03:42.000 : en:Djibouti, North Africa
    00:07:21.000 : en:The Box
    00:10:26.000 : en:The Docks
    00:13:18.000 : en:America
    00:17:07.000 : en:Lyon the Lion
    00:22:48.000 : en:The Lady
    00:35:04.000 : en:L.A.
    00:39:08.000 : en:His Brother;s Family
    00:45:15.000 : en:A Room for the Night
    00:52:43.000 : en:I;ll Fight
    00:59:02.000 : en:A Secret Insurance Policy
    01:08:05.000 : en:You Know Why We;re Here!
    01:12:55.000 : en:The Lady and The Legion
    01:34:25.000 : en:It;s Time to Go
    01:41:12.000 : en:End Titles
    Скриншоты для ознакомления

    Релиз подготовил:

    Размер скачиваемого торрента: 2.47 GB (2656992273 Bytes)

    Самоволка / Леон / Львиное сердце / Lionheart (1990) WEB-DLRip-AVC | P, A скачать через торрент бесплатно
    загрузка...
    Рейтинг →
     (голосов: 1, оценка 3/5, голосовать можно 1 раз )

    Другие торренты по теме:

  • Самоволка / Lionheart (1990) DVDRip | A | Full version
  • Самоволка / Леон / Львиное сердце / Lionheart (1990) DVDRip от Scarabey | Р
  • Самоволка / Леон / Lionheart (1990) WEB-DLRip от Leon-masl
  • Самоволка / Леон / Львиное сердце / Lionheart (1990) HDRip от Scarabey | Гаврилов скачать через торрент бесплатно
  • Самоволка / Леон / Львиное сердце / Lionheart (1990) HDRip от Scarabey | P скачать через торрент бесплатно
  • Самоволка / Леон / Львиное сердце / Lionheart (1990) WEB-DLRip-AVC от New-Team | A, P | Гаврилов
  • Пограничье. Самоволка скачать через торрент бесплатно
  • Сергей Лукьяненко, Михаил Тырин - Самоволка (2014) (2014) MP3


    • Комментарии (0):

      Информация

      Информация

        Посетители, находящиеся в группе Гости, не могут оставлять комментарии в данной новости.

        ↓ Меню



        ↓ Опрос

        А Вы добавили сайт в закладки?
        Да
        Не


        Top 10 за месяц (Фильмы)