.
Авторизация | Регистрация
Хочешь лучшие торренты? Добавь свой email!
Добавить
» » Любовь и секс на Ибице / Verliefd op Ibiza (2013) BDRip 720p | Лицензия скачать через торрент бесплатно




    Любовь и секс на Ибице / Verliefd op Ibiza (2013) BDRip 720p | Лицензия скачать через торрент бесплатно

    Опубликовал: Админ | Дата: 27-02-2015, 11:10 | Просмотров: 202



    Детально о кино
    Русское название: Любовь и секс на Ибице
    Русское название в мировом прокате: Verliefd op Ibiza
    Создали в: 2013
    Категория жанра: комедия, мелодрама
    Главный режиссер: Йохан Нийенхейс
    Актеры: Виллеке ван Аммельрой, Йим Баккум, Рик Энгелкес, Ким Феенстра, Джаспер Готтлиб, Мариус Готтлиб, Кимберли Клавер, Симоне Клейнсма, Ян Коейман, Дэвид Люсиер

    Сюжет фильма:
    Футболист Кевин только что заключил выгодный контракт с мадридским Реалом. Он вряд ли понимает, что делать со свалившимся на него богатством, но его подруга Эльза знает, как Кевин должен тратить свои миллионы... Две 40-летних подруги Джеки и Ирма хотя и проводят отпуск вместе, но имеют разные представления об идеальном отдыхе: Джеки предпочитает тусоваться с молодыми горячими парнями, тогда как Ирме милее спокойный отдых на пляже с книгой... Братья Дилан и Бойд мечтают стать DJ-звездами мирового класса... Пути всех этих героев пересекаются на острове Ибица.




    Снималось в: Нидерланды
    Киностудия: Farmhouse Film TV, Johan Nijenhuis Co
    Время просмотра: 01:52:01
    Перевод текста: Профессиональный (многоголосый закадровый) Лицензия

    Файл
    Кодек для видео: h.264
    Качество фильма: BDRip 720p
    Информация о видео: 1280x720, x264@L4.1, ~4840 kbps
    Информация о звуке: Русский: AC3, 3/2 (L,C,R,l,r) LFE ch, ~448 kbps/ Датский: AC3, 3/2 (L,C,R,l,r) LFE ch, ~640 kbps
    Субтитры: Немецкий, Немецкий (Forced)

    Доп. информация: Сохранены оригинальные чаптеры как на Blu-ray.

    Семпл

    Скриншоты для ознакомления
    MI
    Общее
    Уникальный идентификатор : 184223388409598617731882913009104718868 (0x8A98224F194E1F99B12F0E3C7B6E0C14)
    Полное имя : H:Любовь и секс на Ибице Verliefd op Ibiza (2013) 720p BDRipVerliefd.op.Ibiza.2013.720p.BluRay.Rus.Dut.HDCLUB.mkv
    Формат : Matroska
    Версия формата : Version 4 / Version 2
    Размер файла : 4,64 Гбайт
    Продолжительность : 1 ч. 52 м.
    Общий поток : 5931 Кбит/сек
    Дата кодирования : UTC 2014-03-30 09:18:14
    Программа кодирования : mkvmerge v6.8.0 (;Theme for Great Cities;) 64bit built on Mar 2 2014 21:34:26
    Библиотека кодирования : libebml v1.3.0 libmatroska v1.4.1

    Видео
    Идентификатор : 1
    Формат : AVC
    Формат/Информация : Advanced Video Codec
    Профиль формата : High@L4.1
    Параметр CABAC формата : Да
    Параметр ReFrames формата : 9 кадров
    Идентификатор кодека : V_MPEG4/ISO/AVC
    Продолжительность : 1 ч. 52 м.
    Битрейт : 4725 Кбит/сек
    Ширина : 1280 пикселей
    Высота : 720 пикселей
    Соотношение сторон : 16:9
    Режим частоты кадров : Постоянный
    Частота кадров : 25,000 кадров/сек
    Цветовое пространство : YUV
    Субдискретизация насыщенности : 4:2:0
    Битовая глубина : 8 бит
    Тип развёртки : Прогрессивная
    Бит/(Пиксели*Кадры) : 0.205
    Размер потока : 3,70 Гбайт (80%)
    Заголовок : Verliefd op Ibiza 2013
    Библиотека кодирования : x264 core 142 r2409kMod d6b4e63
    Настройки программы : cabac=1 / ref=9 / deblock=1:-3:-3 / analyse=0x3:0x133 / me=umh / subme=10 / psy=1 / fade_compensate=0.00 / psy_rd=1.00:0.00 / mixed_ref=1 / me_range=32 / chroma_me=1 / trellis=2 / 8x8dct=1 / cqm=0 / deadzone=21,11 / fast_pskip=1 / chroma_qp_offset=-2 / threads=16 / lookahead_threads=2 / sliced_threads=0 / nr=0 / decimate=1 / interlaced=0 / bluray_compat=0 / constrained_intra=0 / fgo=0 / bframes=7 / b_pyramid=2 / b_adapt=2 / b_bias=0 / direct=3 / weightb=1 / open_gop=0 / weightp=2 / keyint=250 / keyint_min=23 / scenecut=40 / intra_refresh=0 / rc_lookahead=40 / rc=crf / mbtree=0 / crf=17.0000 / qcomp=0.65 / qpmin=0 / qpmax=40 / qpstep=4 / vbv_maxrate=50000 / vbv_bufsize=50000 / crf_max=0.0 / nal_hrd=none / filler=0 / ip_ratio=1.25 / pb_ratio=1.25 / aq=1:0.60
    Язык : Dutch
    Default : Да
    Forced : Нет

    Аудио #1
    Идентификатор : 2
    Формат : AC-3
    Формат/Информация : Audio Coding 3
    Расширение режима : CM (complete main)
    Параметр Endianness формата : Big
    Идентификатор кодека : A_AC3
    Продолжительность : 1 ч. 52 м.
    Вид битрейта : Постоянный
    Битрейт : 448 Кбит/сек
    Каналы : 6 каналов
    Расположение каналов : Front: L C R, Side: L R, LFE
    Частота : 48,0 КГц
    Битовая глубина : 16 бит
    Метод сжатия : С потерями
    Размер потока : 359 Мбайт (8%)
    Заголовок : AC3 5.1 @ 448 Kbps - Флагман
    Язык : Russian
    Default : Да
    Forced : Нет

    Аудио #2
    Идентификатор : 3
    Формат : AC-3
    Формат/Информация : Audio Coding 3
    Расширение режима : CM (complete main)
    Параметр Endianness формата : Big
    Идентификатор кодека : A_AC3
    Продолжительность : 1 ч. 52 м.
    Вид битрейта : Постоянный
    Битрейт : 640 Кбит/сек
    Каналы : 6 каналов
    Расположение каналов : Front: L C R, Side: L R, LFE
    Частота : 48,0 КГц
    Битовая глубина : 16 бит
    Метод сжатия : С потерями
    Размер потока : 513 Мбайт (11%)
    Заголовок : AC3 5.1 @ 640 Kbps
    Язык : Dutch
    Default : Нет
    Forced : Нет

    Текст #1
    Идентификатор : 4
    Формат : UTF-8
    Идентификатор кодека : S_TEXT/UTF8
    Идентификатор кодека/Информация : UTF-8 Plain Text
    Язык : German
    Default : Нет
    Forced : Нет

    Текст #2
    Идентификатор : 5
    Формат : UTF-8
    Идентификатор кодека : S_TEXT/UTF8
    Идентификатор кодека/Информация : UTF-8 Plain Text
    Заголовок : Forced
    Язык : German
    Default : Нет
    Forced : Нет

    Меню
    00:00:00.000 : en:00:00:00.000
    00:09:30.720 : en:00:09:30.720
    00:19:04.400 : en:00:19:04.400
    00:26:38.000 : en:00:26:38.000
    00:39:27.080 : en:00:39:27.080
    00:45:23.000 : en:00:45:23.000
    00:54:53.720 : en:00:54:53.720
    01:02:48.400 : en:01:02:48.400
    01:11:37.400 : en:01:11:37.400
    01:20:30.040 : en:01:20:30.040
    01:29:37.000 : en:01:29:37.000
    01:41:26.000 : en:01:41:26.000

    Размер скачиваемого торрента: 4.64 GB (4982594756 Bytes)

    Любовь и секс на Ибице / Verliefd op Ibiza (2013) BDRip 720p | Лицензия скачать через торрент бесплатно
    загрузка...
    Рейтинг →
     (голосов: 1, оценка 4/5, голосовать можно 1 раз )

    Другие торренты по теме:

  • Любовь и прочие неприятности / Любовь, любопытство, прозак и сомнения / Amor, curiosidad, prozak y dudas (2001) DVD5 | A скачать через торрент бесплатно
  • Девушки без имен / Любовь и Ненависть, Лулу и Аяно / Namae no nai onna-tachi / Love Loathing Lulu Ayano (2010) DVDRip-AVC | Sub
  • Сборник - Лирика, Шансон и Любовь и Зеленые глаза скачать через торрент бесплатно
  • Тайны мира с Анной Чапман. Разоблачение. Любовь и война (2013) SATRip
  • Любовь и кухня / Loves Kitchen (2011) HDRip | Лицензия
  • Любовь и честь / Love and Honor / Bushi no ichibun (2006) BDRip от Rulya74
  • Белый Камень - Любовь и ревность (1991) MP3
  • Виталий Черницкий - Любовь и Музыка (1971-2011) MP3


    • Комментарии (0):

      Информация

      Информация

        Посетители, находящиеся в группе Гости, не могут оставлять комментарии в данной новости.

        ↓ Меню



        ↓ Опрос

        А Вы добавили сайт в закладки?
        Да
        Не


        Top 10 за месяц (Фильмы)