.
Авторизация | Регистрация
Хочешь лучшие торренты? Добавь свой email!
Добавить
» » Медсестра / Nurse 3-D (2013) BDRip-AVC | iPad | P скачать через торрент бесплатно




    Медсестра / Nurse 3-D (2013) BDRip-AVC | iPad | P скачать через торрент бесплатно

    Опубликовал: Админ | Дата: 27-02-2015, 11:10 | Просмотров: 305



    Медсестра / Nurse 3-D (2013) BDRip-AVC | iPad | P

    Русское название: Медсестра
    Русское название в мировом прокате: Nurse 3-D
    Создали в: 2013
    Категория жанра: ужасы, триллер
    Главный режиссер: Дуглас Арниокоски
    Актеры: Пас де ла Уэрта, Катрина Боуден, Корбин Блю, Джадд Нельсон, Борис Коджо, Адам Хершман, Найси Нэш, Кэтлин Тёрнер, Майкл Эклунд, Мартин Донован

    Сюжет фильма:
    Днём она - примерная медсестра, которой люди доверяют свою жизнь. А ночью она использует собственную сексуальность, соблазняя людей, чтобы затем убить их с особой жестокостью... Крови становится все больше, и её коллега начинает свое расследование, но кажется, что подозрениям никто не готов поверить...



    Снималось в: США
    Киностудия: Lions Gate Entertainment, Lionsgate
    Время просмотра: 01:23:54
    Перевод текста: Русский профессиональный многоголосый закадровый

    Файл
    Кодек для видео: H.264
    Качество фильма: BDRip-AVC 576p
    Информация о видео: 1024x426 (2.40:1) at 23.976 fps, AVC at 3300 kbps
    Информация о звуке:
    1: АAС 2.0 128 kbps - Русский профессиональный многоголосый закадровый
    2: АAС 2.0 132 kbps - Английский

    Субтитры: отсутствуют

    MI

    General
    Complete name : C:CREATE264mod1outNurse-3D.2013.BDRip.576p.P.m4v
    Format : MPEG-4
    Codec ID : M4V
    File size : 2.11 GiB
    Duration : 1h 23mn
    Overall bit rate mode : Variable
    Overall bit rate : 3 607 Kbps
    Movie name : Медсестра
    Performer : Douglas Aarniokoski
    Genre : Thriller
    ContentType : Short Film
    Deion : Днём, Эбби Рассел - примерная медсестра, которой люди доверяют свою жизнь. Но вот ночью - она по-настоящему работает, используя своё сексуальное тело. Она соблазняет и обманывает людей, чтобы затем предать их жестокой смерти…
    Recorded date : UTC 2013-09-28 08:00:00
    Encoded date : UTC 2014-03-30 06:25:27
    Tagged date : UTC 2014-03-30 06:30:50
    Copyright : Lions Gate Entertainment, Lionsgate
    Cover : Yes
    Comment : Ваша боль – её наслаждение
    ContentRating : mpaa|R|400|

    AppleStoreCatalogID : 592073
    Vendor : Apple:vendor_id:2013-592073

    Video
    ID : 1
    Format : AVC
    Format/Info : Advanced Video Codec
    Format profile : High@L4.1
    Format settings, CABAC : Yes
    Format settings, ReFrames : 9 frames
    Codec ID : avc1
    Codec ID/Info : Advanced Video Coding
    Duration : 1h 23mn
    Bit rate : 3 341 Kbps
    Maximum bit rate : 13.5 Mbps
    Width : 1 024 pixels
    Height : 426 pixels
    Display aspect ratio : 2.40:1
    Frame rate mode : Constant
    Frame rate : 23.976 fps
    Color space : YUV
    Chroma subsampling : 4:2:0
    Bit depth : 8 bits
    Scan type : Progressive
    Bits/(Pixel*Frame) : 0.319
    Stream size : 1.96 GiB (93%)
    Title : Nurse _2013_
    Language : English
    Encoded date : UTC 2014-03-30 06:25:27
    Tagged date : UTC 2014-03-30 06:25:55
    Matrix coefficients : BT.709

    Audio #1
    ID : 2
    Format : AAC
    Format/Info : Advanced Audio Codec
    Format profile : LC
    Codec ID : 40
    Duration : 1h 23mn
    Bit rate mode : Variable
    Bit rate : 123 Kbps
    Maximum bit rate : 169 Kbps
    Channel(s) : 2 channels
    Channel positions : Front: L R
    Sampling rate : 48.0 KHz
    Compression mode : Lossy
    Stream size : 73.7 MiB (3%)
    Title : MVO
    Language : Russian
    Encoded date : UTC 2014-03-30 06:18:46
    Tagged date : UTC 2014-03-30 06:25:55

    Audio #2
    ID : 3
    Format : AAC
    Format/Info : Advanced Audio Codec
    Format profile : LC
    Codec ID : 40
    Duration : 1h 23mn
    Bit rate mode : Variable
    Bit rate : 132 Kbps
    Maximum bit rate : 168 Kbps
    Channel(s) : 2 channels
    Channel positions : Front: L R
    Sampling rate : 48.0 KHz
    Compression mode : Lossy
    Stream size : 78.7 MiB (4%)
    Title : Original
    Language : English
    Encoded date : UTC 2014-03-30 06:23:19
    Tagged date : UTC 2014-03-30 06:25:55

    Menu
    ID : 4
    Codec ID : text
    Duration : 1h 23mn
    Encoded date : UTC 2014-03-30 06:26:27
    Tagged date : UTC 2014-03-30 06:26:27
    Bit rate mode : CBR

    iTunes tags

    Sort Name: Nurse 3-D
    XID: Apple:vendor_id:2013-592073
    Content ID: 592073
    Copyright: Lions Gate Entertainment, Lionsgate
    ScreenWriters: Дэвид Локери, Дуглас Арниокоски
    Producers: Марк Бьенсток, Майкл Пасернек, Джон Сакки
    Director: Дуглас Арниокоски
    Cast: Пас де ла Уэрта, Катрина Боуден, Корбин Блю, Джадд Нельсон, Борис Коджо, Адам Хершман, Найси Нэш, Кэтлин Тёрнер, Майкл Эклунд, Мартин Донован // Paz de la Huerta (Abby Russell), Katrina Bowden (Danni), Boris Kodjoe (Detective John Rogan), Corbin Bleu (Steve), Niecy Nash (Regina), Adam Herschman (Jared), Melanie Scrofano (Rachel Adams)
    Rating: R
    Long Deion: Днём, Эбби Рассел - примерная медсестра, которой люди доверяют свою жизнь. Но вот ночью - она по-настоящему работает, используя своё сексуальное тело. Она соблазняет и обманывает людей, чтобы затем предать их жестокой смерти… Младшая медсестра начинает подозревать Эбби в преступлениях, и она пытается вывести негодяйку на яркий свет…
    Deion: Днём, Эбби Рассел - примерная медсестра, которой люди доверяют свою жизнь. Но вот ночью - она по-настоящему работает, используя своё сексуальное тело. Она соблазняет и обманывает людей, чтобы затем предать их жестокой смерти…
    Release Date: 2013-09-28T08:00:00Z
    Genre: Thriller
    Artist: Douglas Aarniokoski
    Name: Медсестра
    Comments: Ваша боль – её наслаждение
    x264

    x264 info: frame I:939 Avg QP:16.96 size: 84279
    x264 info: frame P:28361 Avg QP:18.96 size: 32019
    x264 info: frame B:91397 Avg QP:19.58 size: 12203
    x264 info: consecutive B-frames: 3.2% 2.7% 12.3% 16.5% 24.2% 36.0% 1.9% 1.9% 0.5% 0.2% 0.1% 0.0% 0.1% 0.1% 0.3%
    x264 info: mb I I16..4: 19.2% 60.3% 20.6%
    x264 info: mb P I16..4: 0.9% 8.3% 1.0% P16..4: 24.1% 40.5% 18.4% 0.0% 0.0% skip: 6.9%
    x264 info: mb B I16..4: 0.1% 0.8% 0.1% B16..8: 40.1% 19.8% 5.2% direct: 9.4% skip:24.4% L0:39.2% L1:47.2% BI:13.6%
    x264 info: 8x8 transform intra:78.5% inter:51.3%
    x264 info: coded y,uvDC,uvAC intra: 95.5% 87.9% 80.2% inter: 39.7% 28.8% 16.6%
    x264 info: i16 v,h,dc,p: 15% 12% 28% 44%
    x264 info: i8 v,h,dc,ddl,ddr,vr,hd,vl,hu: 9% 7% 13% 11% 14% 12% 11% 11% 12%
    x264 info: i4 v,h,dc,ddl,ddr,vr,hd,vl,hu: 10% 8% 7% 10% 16% 15% 12% 11% 11%
    x264 info: i8c dc,h,v,p: 20% 13% 10% 57%
    x264 info: Weighted P-Frames: Y:5.4% UV:4.1%
    x264 info: ref P L0: 56.2% 12.3% 13.1% 5.7% 4.0% 3.0% 2.4% 1.5% 1.4% 0.3% 0.0%
    x264 info: ref B L0: 85.9% 6.5% 3.3% 1.5% 1.1% 0.8% 0.6% 0.3%
    x264 info: ref B L1: 94.7% 5.3%
    x264 info: kb/s:3341.26




    Залил: gekka
    Размер скачиваемого торрента: 2.11 GB (2269708922 Bytes)

    Медсестра / Nurse 3-D (2013) BDRip-AVC | iPad | P скачать через торрент бесплатно
    загрузка...
    Рейтинг →
     (голосов: 1, оценка 3/5, голосовать можно 1 раз )

    Другие торренты по теме:

  • Чувственная медсестра / Медсестра / Linfermiera / The Sensuous Nurse (1975) DVDRip | Sub скачать через торрент бесплатно
  • Медсестра / Nurse 3-D (2013) WEB-DLRip | L1 скачать через торрент бесплатно
  • Медсестра / Nurse 3-D (2013) WEB-DL 720p | L1 скачать через торрент бесплатно
  • Медсестра / Nurse 3-D (2013) WEB-DL 720p | P, L1
  • Медсестра / Nurse 3-D (2013) WEB-DLRip | BaibaKo
  • Кладбище живых: Влюблённая зомби медсестра / Graveyard Alive: A Zombie Nurse in Love (2003) DVDRip | Xixidok скачать через торрент бесплатно
  • Медсестра 3D / Nurse 3-D (2013) BDRip 1080p | P
  • Медсестра / Nurse 3-D (2013) WEB-DLRip-AVC | P, L1 скачать через торрент бесплатно


    • Комментарии (0):

      Информация

      Информация

        Посетители, находящиеся в группе Гости, не могут оставлять комментарии в данной новости.

        ↓ Меню



        ↓ Опрос

        А Вы добавили сайт в закладки?
        Да
        Не


        Top 10 за месяц (Фильмы)