.
Авторизация | Регистрация
Хочешь лучшие торренты? Добавь свой email!
Добавить
» » Одержимая / Crush (2013) BDRip от New-Team | D | лицензия скачать через торрент бесплатно




    Одержимая / Crush (2013) BDRip от New-Team | D | лицензия скачать через торрент бесплатно

    Опубликовал: Админ | Дата: 27-02-2015, 11:10 | Просмотров: 213



    Снималось в: США / Intrepid Pictures

    Категория жанра: триллер
    Создали в: 2013
    Время просмотра: 01:34:51
    Перевод текста: Профессиональный (дублированный)
    Субтитры подготовлены: нет
    Оригинальная аудиодорожка: нет

    Главный режиссер: Малик Бейдер / Malik Bader

    Актеры: Лукас Тилл, Кристал Рид, Сара Болджер, Каитриона Бэлфи, Рейд Юинг, Холт МакКэллани, Ли Уоннелл, Престон Дэвис, Камилла Гуати, Айзая Мустафа...

    Сюжет: Скромная, застенчивая девушка Бесс находит себе идеал в школе. Выбор пал на лучшего футболиста, покорителя всех девичьих сердец, Скотта. Бесс, не в силах противиться своей страсти, начинает преследовать своего кумира…



    Качество фильма: BDRip / BDRemux 1080p DVD5 R5
    Тип видео: AVI

    Информация о видео: 656x368 (16:9), 23.976 fps, XviD ~ 961 kbps avg, 0.166 bit/pixel
    Информация о звуке: 48 kHz, Dolby MP3, 2 ch, 128 kbps, русский

    Раздача от:
    MediaInfo

    Общее
    Полное имя : Oderjimaya.2013.D.BDRip.745MB_New-Team_by_avproh.avi
    Формат : AVI
    Формат/Информация : Audio Video Interleave
    Размер файла : 745 Мбайт
    Продолжительность : 1 ч. 34 м.
    Общий поток : 1098 Кбит/сек
    Программа кодирования : VirtualDubModRus 1.5.10.2 (build 2542/release)
    Библиотека кодирования : VirtualDubMod build 2542/release

    Видео
    Идентификатор : 0
    Формат : MPEG-4 Visual
    Профиль формата : Advanced Simple@L5
    Параметр BVOP формата : 1
    Параметр QPel формата : Нет
    Параметр GMC формата : Без точки перехода
    Параметр матрицы формата : Выборочная
    Идентификатор кодека : XVID
    Идентификатор кодека/Подсказка : XviD
    Продолжительность : 1 ч. 34 м.
    Битрейт : 961 Кбит/сек
    Ширина : 656 пикселей
    Высота : 368 пикселей
    Соотношение сторон : 16:9
    Частота кадров : 23,976 кадра/сек
    Цветовое пространство : YUV
    Субдискретизация насыщенности : 4:2:0
    Битовая глубина : 8 бит
    Тип развёртки : Прогрессивная
    Метод сжатия : С потерями
    Бит/(Пиксели*Кадры) : 0.166
    Размер потока : 652 Мбайт (88%)
    Библиотека кодирования : XviD 73

    Аудио
    Идентификатор : 1
    Формат : MPEG Audio
    Версия формата : Version 1
    Профиль формата : Layer 3
    Режим : Joint stereo
    Расширение режима : MS Stereo
    Идентификатор кодека : 55
    Идентификатор кодека/Подсказка : MP3
    Продолжительность : 1 ч. 34 м.
    Вид битрейта : Постоянный
    Битрейт : 128 Кбит/сек
    Каналы : 2 канала
    Частота : 48,0 КГц
    Метод сжатия : С потерями
    Размер потока : 86,8 Мбайт (12%)
    Выравнивание : Соединение по промежуткам
    Продолжительность промежутка : 42 мс. (1,00 видеокадр)
    Время предзагрузки промежутка : 504 мс.

    Скриншоты для ознакомления:



    Залил: avproh
    Размер скачиваемого торрента: 744.81 MB (780992512 Bytes)

    Одержимая / Crush (2013) BDRip от New-Team | D | лицензия скачать через торрент бесплатно
    загрузка...
    Рейтинг →
     (голосов: 1, оценка 3/5, голосовать можно 1 раз )

    Другие торренты по теме:

  • Одержимая / Обладание, Одержимая бесом / Possession (1981) BDRip 720p от NovaLan
  • Одержимая / Обладание, Одержимая бесом / Possession (1981) BDRip 1080p от NovaLan
  • Малабимба / Одержимая дьяволом / Malabimba / The Malicious Whore (1979) DVDRip-AVC от olegek70 | L1
  • Одержимая / Possessed / Living Death / Disbelief Hell / Hell of the Non-Believers / Bool-sin-ji-ok (2009) DVDRip | L2
  • Одержимая / Possession (1981) BDRip-AVC от Rulya74 | P2
  • Одержимая / Crush (2013) BDRip-AVC от HELLYWOOD | P2
  • Одержимая / Crush (2013) BDRip 720p от CINEMANIA | P2, L1
  • Одержимая / Crush (2013) BDRip 1080p от CINEMANIA | P2, L1


    • Комментарии (0):

      Информация

      Информация

        Посетители, находящиеся в группе Гости, не могут оставлять комментарии в данной новости.

        ↓ Меню



        ↓ Опрос

        А Вы добавили сайт в закладки?
        Да
        Не


        Top 10 за месяц (Фильмы)