.
Авторизация | Регистрация
Хочешь лучшие торренты? Добавь свой email!
Добавить
» » Сквозь снег / Snowpiercer (2013) BDRip 1080p | A, L2 скачать через торрент бесплатно




    Сквозь снег / Snowpiercer (2013) BDRip 1080p | A, L2 скачать через торрент бесплатно

    Опубликовал: Админ | Дата: 27-02-2015, 11:10 | Просмотров: 189



    Детально о кино
    Русское название: Сквозь снег
    Русское название в мировом прокате: Snowpiercer
    Создали в: 2013
    Категория жанра: фантастика, боевик, драма
    Главный режиссер: Пон Чжун Хо / Bong Joon Ho
    Актеры: Крис Эванс, Сон Кан Хо, Тильда Суинтон, Джейми Белл, Октавия Спенсер, Юэн Бремнер, Элисон Пилл, Ко А Сон, Эд Харрис, Джон Хёрт

    Сюжет фильма: Земля. Недалекое будущее. Семнадцать лет назад на планете произошла техногенная катастрофа. Там, где раньше росли леса и цвели сады, теперь лежат снег и лед. Жизнь сохранилась лишь в гигантском поезде, без остановки мчащемся по трансевразийской магистрали. В первых вагонах состава живет правящая элита, во множестве последних — простые люди. Жизнь в хвосте поезда напоминает концлагерь — болезни, нищета, беспредел надсмотрщиков. Но именно здесь из среды униженных и оскорбленных восстает человек, способный восстановить справедливость. Однако у каждой благородной идеи есть своя темная сторона, и любая революция пожирает своих детей.



    Снималось в: США, Корея Южная, Франция, Чехия
    Время просмотра: 02:05:54
    Перевод текста: Авторский (одноголосый, закадровый) - Дмитрий Есарев | не нормативная лексика, Любительский (двухголосый, закадровый) - DeadSno den904

    Файл
    Качество фильма: BDRip 1080p
    Тип видео: MKV
    Информация о видео: MPEG4/AVC, 1920х1036 (1.85:1), 9865 Кбит/сек, 23.976 кадра/сек, 0.207 Бит/(Пиксели*Кадры)
    Информация о звуке 1: AC3, 6 каналов, 640 Кбит/сек | Д. Есарев
    Информация о звуке 2: AC3, 6 каналов, 640 Кбит/сек | DeadSno den904
    Информация о звуке 3: AC3, 6 каналов, 640 Кбит/сек | Eng
    Субтитры: Русские, английские
    Навигация по главам: Есть
    Информация о видеоряд: CHD

    MediaInfo:
    Общее
    Уникальный идентификатор : 237311310542032015745738136565353452374 (0xB2887EF40DCFD119AACC55FC9B029356)
    Полное имя : Snowpiercer. (2013) BDRip 1080p (1).mkv
    Формат : Matroska
    Версия формата : Version 2
    Размер файла : 10,4 Гбайт
    Продолжительность : 2 ч. 5 м.
    Общий поток : 11,8 Мбит/сек
    Дата кодирования : UTC 2014-03-30 08:43:40
    Программа кодирования : mkvmerge v5.8.0 (;No Sleep / Pillow;) built on Sep 2 2012 15:37:04
    Библиотека кодирования : libebml v1.2.3 libmatroska v1.3.0

    Видео
    Идентификатор : 1
    Формат : AVC
    Формат/Информация : Advanced Video Codec
    Профиль формата : High@L4.1
    Параметр CABAC формата : Да
    Параметр ReFrames формата : 4 кадра
    Идентификатор кодека : V_MPEG4/ISO/AVC
    Продолжительность : 2 ч. 5 м.
    Битрейт : 9865 Кбит/сек
    Ширина : 1920 пикселей
    Высота : 1036 пикселей
    Соотношение сторон : 1,85:1
    Режим частоты кадров : Постоянный
    Частота кадров : 23,976 кадра/сек
    Цветовое пространство : YUV
    Субдискретизация насыщенности : 4:2:0
    Битовая глубина : 8 бит
    Тип развёртки : Прогрессивная
    Бит/(Пиксели*Кадры) : 0.207
    Размер потока : 8,47 Гбайт (82%)
    Библиотека кодирования : x264 core 138 r2356 a1d3d17
    Настройки программы : cabac=1 / ref=4 / deblock=1:-3:-3 / analyse=0x3:0x113 / me=umh / subme=10 / psy=1 / psy_rd=1.00:0.05 / mixed_ref=1 / me_range=32 / chroma_me=1 / trellis=2 / 8x8dct=1 / cqm=0 / deadzone=21,11 / fast_pskip=0 / chroma_qp_offset=-2 / threads=18 / lookahead_threads=1 / sliced_threads=0 / nr=0 / decimate=1 / interlaced=0 / bluray_compat=0 / constrained_intra=0 / bframes=6 / b_pyramid=2 / b_adapt=2 / b_bias=0 / direct=3 / weightb=1 / open_gop=0 / weightp=2 / keyint=250 / keyint_min=23 / scenecut=40 / intra_refresh=0 / rc=2pass / mbtree=0 / bitrate=9865 / ratetol=1.0 / qcomp=0.70 / qpmin=0 / qpmax=69 / qpstep=4 / cplxblur=20.0 / qblur=0.5 / ip_ratio=1.40 / pb_ratio=1.30 / aq=2:0.90
    Язык : English
    Default : Да
    Forced : Нет

    Аудио #1
    Идентификатор : 2
    Формат : AC-3
    Формат/Информация : Audio Coding 3
    Расширение режима : CM (complete main)
    Параметр Endianness формата : Big
    Идентификатор кодека : A_AC3
    Продолжительность : 2 ч. 5 м.
    Вид битрейта : Постоянный
    Битрейт : 640 Кбит/сек
    Каналы : 6 каналов
    Расположение каналов : Front: L C R, Side: L R, LFE
    Частота : 48,0 КГц
    Битовая глубина : 16 бит
    Метод сжатия : С потерями
    Размер потока : 576 Мбайт (5%)
    Заголовок : Rus | AC3 | 640 Kbps | A
    Язык : Russian
    Default : Да
    Forced : Нет

    Аудио #2
    Идентификатор : 3
    Формат : AC-3
    Формат/Информация : Audio Coding 3
    Расширение режима : CM (complete main)
    Параметр Endianness формата : Big
    Идентификатор кодека : A_AC3
    Продолжительность : 2 ч. 5 м.
    Вид битрейта : Постоянный
    Битрейт : 640 Кбит/сек
    Каналы : 6 каналов
    Расположение каналов : Front: L C R, Side: L R, LFE
    Частота : 48,0 КГц
    Битовая глубина : 16 бит
    Метод сжатия : С потерями
    Размер потока : 576 Мбайт (5%)
    Заголовок : Rus | AC3 | 640 Kbps | L2
    Язык : Russian
    Default : Нет
    Forced : Нет

    Аудио #3
    Идентификатор : 4
    Формат : AC-3
    Формат/Информация : Audio Coding 3
    Расширение режима : CM (complete main)
    Параметр Endianness формата : Big
    Идентификатор кодека : A_AC3
    Продолжительность : 2 ч. 5 м.
    Вид битрейта : Постоянный
    Битрейт : 640 Кбит/сек
    Каналы : 6 каналов
    Расположение каналов : Front: L C R, Side: L R, LFE
    Частота : 48,0 КГц
    Битовая глубина : 16 бит
    Метод сжатия : С потерями
    Размер потока : 576 Мбайт (5%)
    Заголовок : Eng | AC3 | 640 Kbps
    Язык : English
    Default : Нет
    Forced : Нет

    Текст #1
    Идентификатор : 5
    Формат : UTF-8
    Идентификатор кодека : S_TEXT/UTF8
    Идентификатор кодека/Информация : UTF-8 Plain Text
    Заголовок : Rus
    Язык : Russian
    Default : Нет
    Forced : Нет

    Текст #2
    Идентификатор : 6
    Формат : UTF-8
    Идентификатор кодека : S_TEXT/UTF8
    Идентификатор кодека/Информация : UTF-8 Plain Text
    Заголовок : Eng
    Язык : English
    Default : Нет
    Forced : Нет

    Меню
    00:00:00.000 : :00:00:00.000
    00:08:34.931 : :00:08:34.931
    00:21:25.534 : :00:21:25.534
    00:29:13.877 : :00:29:13.877
    00:39:08.513 : :00:39:08.513
    00:47:23.549 : :00:47:23.549
    00:56:42.566 : :00:56:42.566
    01:06:52.634 : :01:06:52.634
    01:15:16.554 : :01:15:16.554
    01:23:46.605 : :01:23:46.605
    01:36:24.112 : :01:36:24.112
    01:52:12.726 : :01:52:12.726
    02:05:52.712 : :02:05:52.712

    Скриншоты для ознакомления:


    Релиз подготовил:
    Размер скачиваемого торрента: 10.36 GB (11124030435 Bytes)

    Сквозь снег / Snowpiercer (2013) BDRip 1080p | A, L2 скачать через торрент бесплатно
    загрузка...
    Рейтинг →
     (голосов: 1, оценка 3/5, голосовать можно 1 раз )

    Другие торренты по теме:

  • Сквозь снег / Snowpiercer (2013) HD 1080p | L1 | Трейлер
  • OST - Сквозь снег / Snowpiercer (2013) MP3
  • Сквозь снег / Snowpiercer (2013) BDRip 1080p от CINEMANIA | L2 скачать через торрент бесплатно
  • Сквозь снег / Snowpiercer (2013) BDRip 720p от CINEMANIA | L2 скачать через торрент бесплатно
  • Сквозь снег / Snowpiercer (2013) BDRip 720p | L2 скачать через торрент бесплатно
  • Сквозь снег / Snowpiercer (2013) HDRip | L2 скачать через торрент бесплатно
  • Сквозь снег / Snowpiercer (2013) HDRip от Scarabey | L2 скачать через торрент бесплатно
  • Сквозь снег / Snowpiercer (2013) BDRip 1080p от Outsider | A, L2


    • Комментарии (0):

      Информация

      Информация

        Посетители, находящиеся в группе Гости, не могут оставлять комментарии в данной новости.

        ↓ Меню



        ↓ Опрос

        А Вы добавили сайт в закладки?
        Да
        Не


        Top 10 за месяц (Фильмы)