.
Авторизация | Регистрация
Хочешь лучшие торренты? Добавь свой email!
Добавить
» » Междоусобный проект / Смертельный проект / The Internecine Project (1974) DVDRip от NovaLan | A скачать через торрент бесплатно




    Междоусобный проект / Смертельный проект / The Internecine Project (1974) DVDRip от NovaLan | A скачать через торрент бесплатно

    Опубликовал: Админ | Дата: 27-02-2015, 11:10 | Просмотров: 227




    Снималось в: Великобритания, Германия (ФРГ)
    Создали в: Hemisphere Pictures, Lion International
    Категория жанра: Триллер
    Создали в: 1974

    Время просмотра: 01:29:03


    Перевод текста: Авторский одноголосый (Медведев)

    Оригинальная аудиодорожка: Английская

    Главный режиссер: Кен Хьюз

    Актеры: Джеймс Коберн, Ли Грант, Гарри Эндрюс, Иэн Хендри, Майкл Джэйстон, Кристиана Крюгер, Кинен Уинн, Теренс Александр, Филип Энтони, Джулиан Гловер

    Сюжет: Профессор-экономист жаждет власти и денег. Для осуществления своей цели он составил изощреннейший план убийства четырех человек, по которому эти люди сами убивают друг друга. Причём профессору, для реализации задуманного, даже не понадобиться покидать свой дом.



    Исходник: DVD9 R2

    Тип релиза: DVDRip

    Контейнер: AVI


    Информация о видео: XviD, 1947 Кбит/с, 720х400
    Информация о звуке: Русский, английский (АС3, 2 ch, 192 Кбит/с)



    MediaInfo
    Общее
    Полное имя : D:1АААМеждоусобный проект.avi
    Формат : AVI
    Формат/Информация : Audio Video Interleave
    Размер файла : 1,46 Гбайт
    Продолжительность : 1 ч. 29 м.
    Общий поток : 2345 Кбит/сек
    Программа кодирования : VirtualDubMod 1.5.10.2 (build 2540/release)
    Библиотека кодирования : VirtualDubMod build 2540/release

    Видео
    Идентификатор : 0
    Формат : MPEG-4 Visual
    Профиль формата : Advanced Simple@L5
    Параметр BVOP формата : 2
    Параметр QPel формата : Нет
    Параметр GMC формата : Без точки перехода
    Параметр матрицы формата : Default (MPEG)
    Идентификатор кодека : XVID
    Идентификатор кодека/Подсказка : XviD
    Продолжительность : 1 ч. 29 м.
    Битрейт : 1947 Кбит/сек
    Ширина : 720 пикселей
    Высота : 400 пикселей
    Соотношение сторон : 16:9
    Частота кадров : 23,976 кадра/сек
    Цветовое пространство : YUV
    Субдискретизация насыщенности : 4:2:0
    Битовая глубина : 8 бит
    Тип развёртки : Прогрессивная
    Метод сжатия : С потерями
    Бит/(Пиксели*Кадры) : 0.282
    Размер потока : 1,21 Гбайт (83%)
    Библиотека кодирования : XviD 1.2.1 (UTC 2008-12-04)

    Аудио #1
    Идентификатор : 1
    Формат : AC-3
    Формат/Информация : Audio Coding 3
    Расширение режима : CM (complete main)
    Параметр Endianness формата : Big
    Идентификатор кодека : 2000
    Продолжительность : 1 ч. 29 м.
    Вид битрейта : Постоянный
    Битрейт : 192 Кбит/сек
    Каналы : 2 канала
    Расположение каналов : Front: L R
    Частота : 48,0 КГц
    Битовая глубина : 16 бит
    Метод сжатия : С потерями
    Размер потока : 122 Мбайт (8%)
    Выравнивание : Разделение по промежуткам
    Продолжительность промежутка : 42 мс. (1,00 видеокадр)
    Время предзагрузки промежутка : 500 мс.

    Аудио #2
    Идентификатор : 2
    Формат : AC-3
    Формат/Информация : Audio Coding 3
    Расширение режима : CM (complete main)
    Параметр Endianness формата : Big
    Идентификатор кодека : 2000
    Продолжительность : 1 ч. 29 м.
    Вид битрейта : Постоянный
    Битрейт : 192 Кбит/сек
    Каналы : 2 канала
    Расположение каналов : Front: L R
    Частота : 48,0 КГц
    Битовая глубина : 16 бит
    Метод сжатия : С потерями
    Размер потока : 122 Мбайт (8%)
    Выравнивание : Разделение по промежуткам
    Продолжительность промежутка : 42 мс. (1,00 видеокадр)
    Время предзагрузки промежутка : 500 мс.




    Скриншоты для ознакомления




    Релиз группа:
    Автор рипа:
    Залил: YArl
    Размер скачиваемого торрента: 1.46 GB (1566345216 Bytes)

    Междоусобный проект / Смертельный проект / The Internecine Project (1974) DVDRip от NovaLan | A скачать через торрент бесплатно
    загрузка...
    Рейтинг →
     (голосов: 1, оценка 3/5, голосовать можно 1 раз )

    Другие торренты по теме:



      Комментарии (0):

      Информация

      Информация

        Посетители, находящиеся в группе Гости, не могут оставлять комментарии в данной новости.

        ↓ Меню



        ↓ Опрос

        А Вы добавили сайт в закладки?
        Да
        Не


        Top 10 за месяц (Фильмы)