.
Авторизация | Регистрация
Хочешь лучшие торренты? Добавь свой email!
Добавить
» » Тени в раю / Varjoja paratiisissa (1986) BDRip 1080p by msltel | P, A скачать торрент бесплатно




    Тени в раю / Varjoja paratiisissa (1986) BDRip 1080p by msltel | P, A скачать торрент бесплатно

    Опубликовал: Админ | Дата: 27-02-2015, 11:10 | Просмотров: 253



    Русское название: Тени в раю
    Русское название в мировом прокате: Varjoja paratiisissa
    Создали в: 1986
    Категория жанра: Мелодрама, комедия
    Снималось в: Финляндия, Villealfa Filmproduction Oy
    Главный режиссер: Аки Каурисмяки
    Актеры: Матти Пелонпяя, Кати Оутинен, Сакари Куосманен, Эско Никкари, Пекка Лайхо, Юкка-Пекка Пало, Сванте Коркиакоски, Мари Рантасила, Сафка Пекконен

    Сюжет фильма: Тени в раю — история любви мусорщика и кассирши универсама. Главный герой — мрачный усатый тип по имени Никандер. Холост. Обычное времяпрепровождение вечером после работы - кино, потом бар, пока не упьётся и не вляпается в какую-нибудь историю. Утром рискует обнаружить себя то ли в тюремной камере, то ли на мусорной свалке с разбитой головой...

    Качество фильма: BDRip 1080p
    Размер скачиваемого торрента: 9.82 ГБ
    Время просмотра: 01:13:58

    Информация о видео: MPEG-4 AVC, 15.0 Mбит/с, 1920x1080
    Информация о звуке 1: русский, 48 kHz, DTS, 6 ch, 1509 kbps avg, Профессиональный многоголосый,R5, Видеоимпульс
    Информация о звуке 2: русский, 48 kHz, AC3, 2 ch, 192 kbps avg, Авторский, Антон Алексеев

    Внешние файлы
    Информация о звуке: русский, 48 kHz, AC3, 6 ch, 448 kbps avg, Профессиональный многоголосый, R5, Видеоимпульс
    Информация о звуке: финский, 48 kHz, DTS, 6 ch, 1509 kbps avg, Оригинал
    Субтитры: русские (igorert)
    Субтитры: русские (R5)
    Субтитры: английские

    Исходник: posodobl (Кинозал)

    Сравнение с исходником



    MediaInfo Лог х264
    Общее
    Полное имя : D:VideoTeni v raju.1986.x264.BDRip.1080pTeni v raju.1986.eng.srt
    Размер файла : 54,4 Кбайт

    Общее
    Полное имя : D:VideoTeni v raju.1986.x264.BDRip.1080pTeni v raju.1986.MVO.rus.R5, Видеоимпульс.ac3
    Формат : AC-3
    Формат/Информация : Audio Coding 3
    Размер файла : 237 Мбайт
    Продолжительность : 1 ч. 13 м.
    Режим общего битрейта : Постоянный
    Общий поток : 448 Кбит/сек

    Аудио
    Формат : AC-3
    Формат/Информация : Audio Coding 3
    Расширение режима : CM (complete main)
    Параметр Endianness формата : Big
    Продолжительность : 1 ч. 13 м.
    Вид битрейта : Постоянный
    Битрейт : 448 Кбит/сек
    Каналы : 6 каналов
    Расположение каналов : Front: L C R, Side: L R, LFE
    Частота : 48,0 КГц
    Битовая глубина : 16 бит
    Метод сжатия : С потерями
    Размер потока : 237 Мбайт (100%)

    Общее
    Полное имя : D:VideoTeni v raju.1986.x264.BDRip.1080pTeni v raju.1986.Original.fin.dts
    Формат : DTS
    Формат/Информация : Digital Theater Systems
    Размер файла : 798 Мбайт
    Продолжительность : 1 ч. 13 м.
    Режим общего битрейта : Постоянный
    Общий поток : 1509 Кбит/сек

    Аудио
    Формат : DTS
    Формат/Информация : Digital Theater Systems
    Режим : 16
    Параметр Endianness формата : Big
    Продолжительность : 1 ч. 13 м.
    Вид битрейта : Постоянный
    Битрейт : 1509 Кбит/сек
    Каналы : 6 каналов
    Расположение каналов : Front: L C R, Side: L R, LFE
    Частота : 48,0 КГц
    Битовая глубина : 24 бит
    Метод сжатия : С потерями
    Размер потока : 798 Мбайт (100%)

    Общее
    Полное имя : D:VideoTeni v raju.1986.x264.BDRip.1080pTeni v raju.1986.rus.igorert.srt
    Размер файла : 55,5 Кбайт

    Общее
    Полное имя : D:VideoTeni v raju.1986.x264.BDRip.1080pTeni v raju.1986.rus.R5.srt
    Размер файла : 56,3 Кбайт

    Общее
    Уникальный идентификатор : 206449805548051867987961945724216072282 (0x9B50C947CC22FED9BCF1930E6A86D85A)
    Полное имя : D:VideoTeni v raju.1986.x264.BDRip.1080pTeni v raju.1986.x264.BDRip.1080p.mkv
    Формат : Matroska
    Версия формата : Version 4 / Version 2
    Размер файла : 8,81 Гбайт
    Продолжительность : 1 ч. 13 м.
    Общий поток : 17,1 Мбит/сек
    Дата кодирования : UTC 2014-03-29 02:51:42
    Программа кодирования : mkvmerge v6.8.0 (;Theme for Great Cities;) 64bit built on Mar 2 2014 21:34:26
    Библиотека кодирования : libebml v1.3.0 libmatroska v1.4.1

    Видео
    Идентификатор : 1
    Формат : AVC
    Формат/Информация : Advanced Video Codec
    Профиль формата : High@L4.1
    Параметр CABAC формата : Да
    Параметр ReFrames формата : 4 кадра
    Идентификатор кодека : V_MPEG4/ISO/AVC
    Продолжительность : 1 ч. 13 м.
    Битрейт : 15,0 Мбит/сек
    Ширина : 1920 пикселей
    Высота : 1080 пикселей
    Соотношение сторон : 16:9
    Режим частоты кадров : Постоянный
    Частота кадров : 23,976 кадра/сек
    Цветовое пространство : YUV
    Субдискретизация насыщенности : 4:2:0
    Битовая глубина : 8 бит
    Тип развёртки : Прогрессивная
    Бит/(Пиксели*Кадры) : 0.302
    Размер потока : 7,76 Гбайт (88%)
    Заголовок : BDRip -- STarankov
    Библиотека кодирования : x264 core 138 r2358 9e941d1
    Залил: msltel
    Размер скачиваемого торрента: 9.82 GB (10549114983 Bytes)


    Тени в раю / Varjoja paratiisissa (1986) BDRip 1080p by msltel | P, A торрент скачать бесплатно
    загрузка...
    Рейтинг →
     (голосов: 1, оценка 3/5, голосовать можно 1 раз )

    Другие торренты по теме:

  • Тени в раю / Shadows in Paradise (1986) BDRip от MediaClub | P, A
  • Путешествие во времени: Тени в Ла Рошель скачать через торрент бесплатно
  • Тени в раю / Varjoja paratiisissa (Shadows in Paradise) / 1986 / ПМ, АП (Алексеев), СТ / BDRip
  • Что мы делаем в темноте / Чем мы занимаемся в тени / What We Do in the Shadows скачать через торрент бесплатно
  • Призраки в Коннектикуте 2: Тени прошлого / The Haunting in Connecticut 2: Ghosts of Georgia (2013) WEB-DLRip | L2
  • Индзю, зверь в тени / Inju / Inju, la bete dans lombre (2008) HDRip
  • В тени / In the Shadow (2012) DVD9 | L1
  • Змея в тени орла / Snake in the Eagles Shadow / Se ying diu sau (1978) HDRip | P2


    • Комментарии (0):

      Информация

      Информация

        Посетители, находящиеся в группе Гости, не могут оставлять комментарии в данной новости.

        ↓ Меню



        ↓ Опрос

        А Вы добавили сайт в закладки?
        Да
        Не


        Top 10 за месяц (Фильмы)