.
Авторизация | Регистрация
Хочешь лучшие торренты? Добавь свой email!
Добавить
» » Колено Клер / Le Genou de claire (1970) BDRip by msltel | P, A скачать торрент бесплатно




    Колено Клер / Le Genou de claire (1970) BDRip by msltel | P, A скачать торрент бесплатно

    Опубликовал: Админ | Дата: 27-02-2015, 11:10 | Просмотров: 217



    Русское название: Колено Клер
    Русское название в мировом прокате: Le Genou de claire
    Создали в: 1970
    Категория жанра: Драма, мелодрама
    Снималось в: Франция, Les films du Losange
    Главный режиссер: Эрик Ромер
    Актеры: Жан-Клод Бриали, Аврора Корну, Беатрис Роман, Лоуренс Де Монахэн, Мишель Монтель, Жерар Фальконетти, Фабрис Лукини, Сандра Франкина

    Сюжет фильма: Жизнь Жерома, интеллектуала средних лет, полностью подчинена разуму, а не сердцу. Французский дипломат, он помолвлен с женщиной, которую любит, но к которой не испытывает страсти. Во время отдыха на французских Альпах, где прошло его детство, ему встречается подруга юности — писательница Аврора, которая знакомит его с 14-летней Лорой, проводящей здесь каникулы. Жерома забавляет чувство, которое начинает проявлять к нему Лора, пока он сам не начинает испытывать странное чувство к ее сестре — Клер. Но свою страсть он облекает в такую форму, в которой может удержать её под контролем: искушение для него — дотронуться до её колена.

    Качество фильма: BDRip
    Информация о видео: XviD, 2001 Kбит/с, 672x496
    Информация о звуке: Русский, французский (AC3, 1 ch, 192 Кбит/с)
    Размер скачиваемого торрента: 1.92 ГБ
    Время просмотра: 01:45:50
    Перевод текста: Профессиональный многоголосый (Видеоимпульс), авторский (Сергей Козлов)
    Субтитры: Русские, английские

    Исходник: posodobl (Кинозал)

    Сравнение с исходником



    Награды
    Золотой глобус, 1972 год
    Номинации (1):
    Лучший иностранный фильм — Франция

    Сан-Себастьян, 1971 год
    Победитель (1):
    Золотая раковина
    MediaInfo
    Общее
    Полное имя : D:VideoKoleno Kler.1970.XviD.BDRipKoleno Kler.1970.eng.srt
    Формат : SubRip
    Размер файла : 103 Кбайт

    Текст
    Формат : SubRip
    Метод сжатия : Без потерь

    Общее
    Полное имя : D:VideoKoleno Kler.1970.XviD.BDRipKoleno Kler.1970.Original.fre.ac3
    Формат : AC-3
    Формат/Информация : Audio Coding 3
    Размер файла : 145 Мбайт
    Продолжительность : 1 ч. 45 м.
    Режим общего битрейта : Постоянный
    Общий поток : 192 Кбит/сек

    Аудио
    Формат : AC-3
    Формат/Информация : Audio Coding 3
    Расширение режима : CM (complete main)
    Параметр Endianness формата : Big
    Продолжительность : 1 ч. 45 м.
    Вид битрейта : Постоянный
    Битрейт : 192 Кбит/сек
    Каналы : 1 канал
    Расположение каналов : Front: C
    Частота : 48,0 КГц
    Битовая глубина : 16 бит
    Метод сжатия : С потерями
    Размер потока : 145 Мбайт (100%)

    Общее
    Полное имя : D:VideoKoleno Kler.1970.XviD.BDRipKoleno Kler.1970.rus.srt
    Формат : SubRip
    Размер файла : 147 Кбайт

    Текст
    Формат : SubRip
    Метод сжатия : Без потерь

    Общее
    Полное имя : D:VideoKoleno Kler.1970.XviD.BDRipKoleno Kler.1970.XviD.BDRip.avi
    Формат : AVI
    Формат/Информация : Audio Video Interleave
    Размер файла : 1,77 Гбайт
    Продолжительность : 1 ч. 45 м.
    Общий поток : 2398 Кбит/сек
    Программа кодирования : VirtualDubMod 1.5.10.2 (build 2540/release)
    Библиотека кодирования : VirtualDubMod build 2540/release

    Видео
    Идентификатор : 0
    Формат : MPEG-4 Visual
    Профиль формата : Advanced Simple@L5
    Параметр BVOP формата : 1
    Параметр QPel формата : Нет
    Параметр GMC формата : Без точки перехода
    Параметр матрицы формата : Default (H.263)
    Режим смешивания : Сжатый битовый поток
    Идентификатор кодека : XVID
    Идентификатор кодека/Подсказка : XviD
    Продолжительность : 1 ч. 45 м.
    Битрейт : 2001 Кбит/сек
    Ширина : 672 пикселя
    Высота : 496 пикселей
    Соотношение сторон : 4:3
    Частота кадров : 24,000 кадра/сек
    Цветовое пространство : YUV
    Субдискретизация насыщенности : 4:2:0
    Битовая глубина : 8 бит
    Тип развёртки : Прогрессивная
    Метод сжатия : С потерями
    Бит/(Пиксели*Кадры) : 0.250
    Размер потока : 1,48 Гбайт (83%)
    Библиотека кодирования : XviD 1.2.1 (UTC 2008-12-04)

    Аудио #1
    Идентификатор : 1
    Формат : AC-3
    Формат/Информация : Audio Coding 3
    Расширение режима : CM (complete main)
    Параметр Endianness формата : Big
    Идентификатор кодека : 2000
    Продолжительность : 1 ч. 45 м.
    Вид битрейта : Постоянный
    Битрейт : 192 Кбит/сек
    Каналы : 1 канал
    Расположение каналов : Front: C
    Частота : 48,0 КГц
    Битовая глубина : 16 бит
    Метод сжатия : С потерями
    Размер потока : 145 Мбайт (8%)
    Выравнивание : Разделение по промежуткам
    Продолжительность промежутка : 42 мс. (1,00 видеокадр)
    Время предзагрузки промежутка : 500 мс.

    Аудио #2
    Идентификатор : 2
    Формат : AC-3
    Формат/Информация : Audio Coding 3
    Расширение режима : CM (complete main)
    Параметр Endianness формата : Big
    Идентификатор кодека : 2000
    Продолжительность : 1 ч. 45 м.
    Вид битрейта : Постоянный
    Битрейт : 192 Кбит/сек
    Каналы : 1 канал
    Расположение каналов : Front: C
    Частота : 48,0 КГц
    Битовая глубина : 16 бит
    Метод сжатия : С потерями
    Размер потока : 145 Мбайт (8%)
    Выравнивание : Разделение по промежуткам
    Продолжительность промежутка : 42 мс. (1,00 видеокадр)
    Время предзагрузки промежутка : 500 мс.
    Скриншоты для ознакомления



    Залил: msltel
    Размер скачиваемого торрента: 1.92 GB (2056408667 Bytes)

    Колено Клер / Le Genou de claire (1970) BDRip by msltel | P, A торрент скачать бесплатно
    загрузка...
    Рейтинг →
     (голосов: 1, оценка 5/5, голосовать можно 1 раз )

    Другие торренты по теме:

  • Колено Клер / Le Genou de claire (1970) BDRip 720p by msltel | P, A скачать через торрент бесплатно
  • Колено Клер / Le Genou de claire (1970) BDRip 1080p by msltel | P, A скачать через торрент бесплатно


    • Комментарии (0):

      Информация

      Информация

        Посетители, находящиеся в группе Гости, не могут оставлять комментарии в данной новости.

        ↓ Меню



        ↓ Опрос

        А Вы добавили сайт в закладки?
        Да
        Не


        Top 10 за месяц (Фильмы)