.
Авторизация | Регистрация
Хочешь лучшие торренты? Добавь свой email!
Добавить
» » Лекарь: Ученик Авиценны / The Physician (2013) BDRemux | D | Лицензия скачать торрент бесплатно




    Лекарь: Ученик Авиценны / The Physician (2013) BDRemux | D | Лицензия скачать торрент бесплатно

    Опубликовал: Админ | Дата: 27-02-2015, 11:10 | Просмотров: 197



    Русское название: Лекарь: Ученик Авиценны
    Русское название в мировом прокате: The Physician
    Создали в: 2013
    Категория жанра: Драма, приключения
    Главный режиссер: Филипп Штёльцль
    Актеры: Том Пэйн, Бен Кингсли, Эмма Ригби, Стеллан Скарсгард, Оливье Мартинес, Элиас ЭмБарек, Майкл Джибсон, Стэнли Таунсенд, Майкл Маркус Морган, Адам Томас Райт

    Сюжет: Англия, XI век. Мать десятилетнего Роба Коула умирает в страшных мучениях: никто не знает ни природы её болезни, ни лекарства против неё. Маленький Роб, потрясенный до глубины души, во что бы то ни стало стремится разгадать эту тайну.Ему суждено пройти долгий путь, от Англии до Персии, его учителями становятся сначала обыкновенный шарлатан Барбер, а потом — великий лекарь Авиценна. Мудрый учитель видит в Робе необыкновенный талант к медицине, но советует ему не спешить делать вещи, которые не соответствуют веку. Но Роб ни перед чем не останавливается в своем желании научиться спасать людей от смерти, и над его собственной жизнью нависает угроза, ведь он дважды пошел против предрассудков: использовал для научных исследований тело человека и полюбил женщину, отданную в жены другому.

    Снималось в: Германия, UFA Cinema, ARD Degeto Film, Beta Cinema
    Время просмотра: 02:34:47
    Перевод текста: Дублированный

    Качество фильма: Blu-Ray Remux (1080p)
    Информация о видео: MPEG-4 AVC, 24.4 Мбит/с, 1920x1080
    Информация о звуке rus: (DTS, 6 ch, 755 Кбит/с), (АС3, 6 ch, 640 Кбит/с)


    Инфо
    Полное имя : D:The.Physician.2013.BDRemux.mkv
    Формат : Matroska
    Версия формата : Version 2
    Размер файла : 28,5 Гбайт
    Продолжительность : 2 ч. 34 м.
    Режим общего битрейта : Переменный
    Общий поток : 26,3 Мбит/сек
    Дата кодирования : UTC 2014-03-28 20:30:07
    Программа кодирования : mkvmerge v5.7.0 (;The Whirlwind;) built on Aug 7 2012 14:11:40
    Библиотека кодирования : libebml v1.2.3 libmatroska v1.3.0
    Attachment : Yes

    Видео
    Идентификатор : 1
    Формат : AVC
    Формат/Информация : Advanced Video Codec
    Профиль формата : High@L4.1
    Параметр CABAC формата : Да
    Параметр ReFrames формата : 4 кадра
    Параметр GOP формата : M=3, N=24
    Идентификатор кодека : V_MPEG4/ISO/AVC
    Продолжительность : 2 ч. 34 м.
    Вид битрейта : Переменный
    Битрейт : 24,4 Мбит/сек
    Максимальный битрейт : 33,0 Мбит/сек
    Ширина : 1920 пикселей
    Высота : 1080 пикселей
    Соотношение сторон : 16:9
    Режим частоты кадров : Постоянный
    Частота кадров : 24,000 кадра/сек
    Стандарт вещания : NTSC
    Цветовое пространство : YUV
    Субдискретизация насыщенности : 4:2:0
    Битовая глубина : 8 бит
    Тип развёртки : Прогрессивная
    Бит/(Пиксели*Кадры) : 0.490
    Размер потока : 26,4 Гбайт (93%)
    Язык : German
    Default : Да
    Forced : Нет
    Основные цвета : BT.709
    Характеристики трансфера : BT.709
    Коэффициенты матрицы : BT.709

    Аудио #1
    Идентификатор : 2
    Формат : DTS
    Формат/Информация : Digital Theater Systems
    Режим : 16
    Параметр Endianness формата : Big
    Идентификатор кодека : A_DTS
    Продолжительность : 2 ч. 34 м.
    Вид битрейта : Постоянный
    Битрейт : 768 Кбит/сек
    Каналы : 6 каналов
    Расположение каналов : Front: L C R, Side: L R, LFE
    Частота : 48,0 КГц
    Битовая глубина : 16 бит
    Метод сжатия : С потерями
    Размер потока : 850 Мбайт (3%)
    Заголовок : DTS 5.1 / 768 kbps / Dub
    Язык : Russian
    Default : Да
    Forced : Нет

    Аудио #2
    Идентификатор : 3
    Формат : AC-3
    Формат/Информация : Audio Coding 3
    Расширение режима : CM (complete main)
    Параметр Endianness формата : Big
    Идентификатор кодека : A_AC3
    Продолжительность : 2 ч. 34 м.
    Вид битрейта : Постоянный
    Битрейт : 640 Кбит/сек
    Каналы : 6 каналов
    Расположение каналов : Front: L C R, Side: L R, LFE
    Частота : 48,0 КГц
    Битовая глубина : 16 бит
    Метод сжатия : С потерями
    Размер потока : 709 Мбайт (2%)
    Заголовок : AC3 5.1 / 640 kbps / Dub
    Язык : Russian
    Default : Нет
    Forced : Нет

    Меню
    00:00:00.000 : de:Chapter 1
    00:00:04.000 : de:Chapter 2
    00:18:33.416 : de:Chapter 3
    00:38:54.750 : de:Chapter 4
    00:56:59.083 : de:Chapter 5
    01:21:29.916 : de:Chapter 6
    01:39:45.916 : de:Chapter 7
    02:05:39.000 : de:Chapter 8
    02:20:17.708 : de:Chapter 9




    Размер скачиваемого торрента: 28.47 GB (30570696751 Bytes)

    Лекарь: Ученик Авиценны / The Physician (2013) BDRemux | D | Лицензия торрент скачать бесплатно
    загрузка...
    Рейтинг →
     (голосов: 1, оценка 3/5, голосовать можно 1 раз )

    Другие торренты по теме:

  • Лекарь: Ученик Авиценны (2013)
  • OST - Лекарь: Ученик Авиценны / The Physician / Der Medicus (2014) MP3 скачать через торрент бесплатно
  • Лекарь: Ученик Авиценны / The Physician (2013) TS
  • Лекарь: Ученик Авиценны / The Physician (2013) WEB-DLRip-AVC | iTunes
  • Лекарь: Ученик Авиценны / The Physician (2013) WEB-DLRip | iTunes
  • Лекарь: Ученик Авиценны / The Physician (2013) WEB-DL 720p | iTunes
  • Лекарь: Ученик Авиценны / The Physician (2013) WEB-DLRip от Scarabey | D | iTunes
  • Лекарь: Ученик Авиценны / The Physician (2013) BDRip 720p | Лицензия скачать через торрент бесплатно


    • Комментарии (0):

      Информация

      Информация

        Посетители, находящиеся в группе Гости, не могут оставлять комментарии в данной новости.

        ↓ Меню



        ↓ Опрос

        А Вы добавили сайт в закладки?
        Да
        Не


        Top 10 за месяц (Фильмы)