.
Авторизация | Регистрация
Хочешь лучшие торренты? Добавь свой email!
Добавить
» » Держись, Чарли! / Good Luck Charlie (2013) WEB-DLRip | Disney скачать через торрент бесплатно




    Держись, Чарли! / Good Luck Charlie (2013) WEB-DLRip | Disney скачать через торрент бесплатно

    Опубликовал: Админ | Дата: 27-02-2015, 11:10 | Просмотров: 244


    Информация
    Русское название: Держись, Чарли! / Good Luck Charlie
    Создали в: 2013
    Категория жанра: Комедия, семейный
    Главный режиссер: Шелли Дженсен
    Актеры: Бриджит Мендлер, Ли Эллин Бэйкер, Брэдли Стивен Перри, Эрик Аллан Крамер, Джейсон Долли, Шэйн Харпер


    Сюжет:
    После того как мама возвращается к работе медсестры, а папа с головой уходит в свой бизнес, воспитание девочки ложится на плечи ее старшей сестры 15-летней Тедди и братьев — 17-летнего Пи-Джея и 10-летнего Гейба. При этом ребятам приходится сочетать уход за маленькой сестренкой с учебой в школе, одновременно справляясь со всеми трудностями подросткового возраста.





    Тех. данные


    Время просмотра: 01 x ~ 00:23:00
    Снималось в: США, It;s a Laugh Productions
    Перевод текста: Полное дублирование Канал Disney
    Субтитры: Отсутствуют


    Файл
    Тип видео: MP4
    Качество фильма: WEB-DLRip
    Информация о видео: MPEG-4-AVC, ~560 Kbps, 600х480
    Информация о звуке: AAC, 2 ch, 102 kb/s
    MI:

    General
    Complete name : Держись, Чарли! - 4 сезон любимого сериала 1 серия.mp4
    Format : MPEG-4
    Format profile : Base Media
    Codec ID : isom
    File size : 116 MiB
    Duration : 24mn 5s
    Overall bit rate : 672 Kbps
    Writing application : Lavf54.59.106

    Video
    ID : 1
    Format : AVC
    Format/Info : Advanced Video Codec
    Format profile : High@L3.0
    Format settings, CABAC : Yes
    Format settings, ReFrames : 4 frames
    Codec ID : avc1
    Codec ID/Info : Advanced Video Coding
    Duration : 24mn 5s
    Duration_LastFrame : -5ms
    Bit rate mode : Variable
    Bit rate : 560 Kbps
    Width : 600 pixels
    Height : 480 pixels
    Display aspect ratio : 4:3
    Original display aspect ratio : 4:3
    Frame rate mode : Constant
    Frame rate : 25.000 fps
    Color space : YUV
    Chroma subsampling : 4:2:0
    Bit depth : 8 bits
    Scan type : Progressive
    Bits/(Pixel*Frame) : 0.078
    Stream size : 97.0 MiB (84%)
    Writing library : x264 core 129
    Encoding settings : cabac=1 / ref=3 / deblock=1:0:0 / analyse=0x3:0x113 / me=hex / subme=7 / psy=1 / psy_rd=1.00:0.00 / mixed_ref=1 / me_range=16 / chroma_me=1 / trellis=1 / 8x8dct=1 / cqm=0 / deadzone=21,11 / fast_pskip=1 / chroma_qp_offset=-2 / threads=24 / lookahead_threads=4 / sliced_threads=0 / nr=0 / decimate=1 / interlaced=0 / bluray_compat=0 / constrained_intra=0 / bframes=3 / b_pyramid=2 / b_adapt=1 / b_bias=0 / direct=1 / weightb=1 / open_gop=0 / weightp=2 / keyint=250 / keyint_min=25 / scenecut=40 / intra_refresh=0 / rc_lookahead=40 / rc=abr / mbtree=1 / bitrate=560 / ratetol=1.0 / qcomp=0.60 / qpmin=0 / qpmax=69 / qpstep=4 / ip_ratio=1.40 / aq=1:1.00

    Audio
    ID : 2
    Format : AAC
    Format/Info : Advanced Audio Codec
    Format profile : LC
    Codec ID : 40
    Duration : 24mn 5s
    Bit rate mode : Variable
    Bit rate : 102 Kbps
    Maximum bit rate : 128 Kbps
    Channel(s) : 2 channels
    Channel positions : Front: L R
    Sampling rate : 44.1 KHz
    Compression mode : Lossy
    Stream size : 17.7 MiB (15%)
    Скриншоты для ознакомления



    Размер скачиваемого торрента: 955.97 MB (1002411515 Bytes)

    Держись, Чарли! / Good Luck Charlie (2013) WEB-DLRip | Disney скачать через торрент бесплатно
    загрузка...
    Рейтинг →
     (голосов: 1, оценка 3/5, голосовать можно 1 раз )

    Другие торренты по теме:

  • Держись, Чарли! Это Рождество! / Good Luck Charlie, Its Christmas! (2011) HDTVRip 720p
  • Держись до конца / Going the Distance (2004) HDRip-AVC от Youtracker
  • Держись до конца / Going the Distance (2004) HDRip от Youtracker
  • Держись до конца / Going the Distance (2004) BDRip от HQCLUB
  • Держись до конца / Going the Distance (2004) BDRip 1080p
  • Константин Крымский - Верь и держись (2013) МР3 от BestSound ExKinoRay
  • Ну, держись / Comin at Ya! (1981) DVDRip от Koenig | A


    • Комментарии (0):

      Информация

      Информация

        Посетители, находящиеся в группе Гости, не могут оставлять комментарии в данной новости.

        ↓ Меню



        ↓ Опрос

        А Вы добавили сайт в закладки?
        Да
        Не


        Top 10 за месяц (Фильмы)