.
Авторизация | Регистрация
Хочешь лучшие торренты? Добавь свой email!
Добавить
» » Мак и я / Mac and Me (1988) HDTVRip от New-Team скачать через торрент бесплатно




    Мак и я / Mac and Me (1988) HDTVRip от New-Team скачать через торрент бесплатно

    Опубликовал: Админ | Дата: 27-02-2015, 11:10 | Просмотров: 228


    Снималось в: США
    Создали в: Mac and Me Joint Venture

    Категория жанра: фантастика, фэнтези, приключения, семейный
    Создали в: 1988
    Время просмотра: 01:35:13

    Перевод текста: Профессиональный (многоголосый, закадровый)
    Оригинальная аудиодорожка: английский
    Субтитры подготовлены: нет

    Главный режиссер: Стюарт Рэффил / Stewart Raffill

    Актеры:
    Кристин Эберсоул, Джонатан Уорд, Тина Каспари, Лоурен Стэнли, Винни Торренте, Мартин Уэст, Иван Дж. Радо, Дэнни Кукси, Лора Уотербери...

    Сюжет:
    Мак — обычный ребенок, только с другой планеты, и выглядит он совсем не так, как обитатели Земли. Вместе с мамой и папой он прилетает из космоса в мир людей, но потом теряется и находит убежище в доме семьи, где есть двое детей. В новом пугающем мире Мак может полагаться только на свои необычные для землян способности. Лучшим другом Мака становится мальчик-инвалид, который помогает симпатяге-пришельцу адаптироваться в новых условиях и укрывает его от врагов…




    Исходник: HDTVRip 720p
    Тип релиза: HDTVRip
    Контейнер: AVI

    Информация о видео: 720x384 (1,85:1), 23,976 fps, XviD ~ 1797 kbps avg, 0.260 bit/pixel
    Информация о звуке: 48 kHz, Dolby Digital AC3 2.0, 192 kbps DUB
    Информация о звуке: 48 kHz, Dolby Digital AC3 2.0, 192 kbps Английский

    Раздача от:
    MediaInfo

    Общее
    Полное имя : Mak.i.ya.1988.HDTVRip_New-team_by_AVP_Studio.avi
    Формат : AVI
    Формат/Информация : Audio Video Interleave
    Размер файла : 1,46 Гбайт
    Продолжительность : 1 ч. 35 м.
    Общий поток : 2195 Кбит/сек
    Программа кодирования : VirtualDubModRus 1.5.10.2 (build 2542/release)
    Библиотека кодирования : VirtualDubMod build 2542/release

    Видео
    Идентификатор : 0
    Формат : MPEG-4 Visual
    Профиль формата : Advanced Simple@L5
    Параметр BVOP формата : 1
    Параметр QPel формата : Нет
    Параметр GMC формата : Без точки перехода
    Параметр матрицы формата : Выборочная
    Идентификатор кодека : XVID
    Идентификатор кодека/Подсказка : XviD
    Продолжительность : 1 ч. 35 м.
    Битрейт : 1797 Кбит/сек
    Ширина : 720 пикселей
    Высота : 384 пикселя
    Соотношение сторон : 1,85:1
    Частота кадров : 25,000 кадров/сек
    Цветовое пространство : YUV
    Субдискретизация насыщенности : 4:2:0
    Битовая глубина : 8 бит
    Тип развёртки : Прогрессивная
    Метод сжатия : С потерями
    Бит/(Пиксели*Кадры) : 0.260
    Размер потока : 1,20 Гбайт (82%)
    Библиотека кодирования : XviD 73

    Аудио #1
    Идентификатор : 1
    Формат : AC-3
    Формат/Информация : Audio Coding 3
    Расширение режима : CM (complete main)
    Параметр Endianness формата : Big
    Идентификатор кодека : 2000
    Продолжительность : 1 ч. 35 м.
    Вид битрейта : Постоянный
    Битрейт : 192 Кбит/сек
    Каналы : 2 канала
    Расположение каналов : Front: L R
    Частота : 48,0 КГц
    Битовая глубина : 16 бит
    Метод сжатия : С потерями
    Размер потока : 131 Мбайт (9%)
    Выравнивание : Разделение по промежуткам
    Продолжительность промежутка : 40 мс. (1,00 видеокадр)
    Время предзагрузки промежутка : 500 мс.

    Аудио #2
    Идентификатор : 2
    Формат : AC-3
    Формат/Информация : Audio Coding 3
    Профиль формата : Dolby Digital
    Расширение режима : CM (complete main)
    Параметр Endianness формата : Big
    Идентификатор кодека : 2000
    Продолжительность : 1 ч. 35 м.
    Вид битрейта : Постоянный
    Битрейт : 192 Кбит/сек
    Каналы : 2 канала
    Расположение каналов : Front: L R
    Частота : 48,0 КГц
    Битовая глубина : 16 бит
    Метод сжатия : С потерями
    Размер потока : 131 Мбайт (9%)
    Выравнивание : Разделение по промежуткам
    Продолжительность промежутка : 40 мс. (1,00 видеокадр)
    Время предзагрузки промежутка : 500 мс

    Скриншоты для ознакомления



    Залил: AVPStudio
    Размер скачиваемого торрента: 1.46 GB (1567692800 Bytes)

    Мак и я / Mac and Me (1988) HDTVRip от New-Team скачать через торрент бесплатно
    загрузка...
    Рейтинг →
     (голосов: 1, оценка 5/5, голосовать можно 1 раз )

    Другие торренты по теме:

  • Мак И Девин Идут В Школу / Mac Devin Go To High School (2012) HDRip | L2
  • Мак и я / Mac and Me (1988) HDTVRip-AVC от New-Team скачать через торрент бесплатно
  • Мак и Сыр / Mac n Cheese (2011) WEBRip AVC от SuperMin
  • Мак Дэдди и любовники / Mac Daddy the Lovers (2015) HDTVRip | P


    • Комментарии (0):

      Информация

      Информация

        Посетители, находящиеся в группе Гости, не могут оставлять комментарии в данной новости.

        ↓ Меню



        ↓ Опрос

        А Вы добавили сайт в закладки?
        Да
        Не


        Top 10 за месяц (Фильмы)