.
Авторизация | Регистрация
Хочешь лучшие торренты? Добавь свой email!
Добавить
» » Мужские надежды / Muzi v nadeji (2011) BDRip 720р | A1 скачать через торрент бесплатно




    Мужские надежды / Muzi v nadeji (2011) BDRip 720р | A1 скачать через торрент бесплатно

    Опубликовал: Админ | Дата: 27-02-2015, 11:10 | Просмотров: 227

    Детально о кино
    Русское название: Мужские надежды / Muzi v nadeji
    Создали в: 2011
    Категория жанра: Комедия, драма
    Главный режиссер: Иржи Вейделек
    Актеры: Иржи Махачек, Болек Поливка, Петра Гржебичкова, Вика Керекеш, Симона Сташова, Лукас Лангмайер, Гинек Сермак, Филип Антонио, Йитка Чванчарова, Вацлав Илек, Сюзанна Онуфракова, Войцех Швейда, Милан Быцек


    Сюжет:
    Симпатичный бонвиван и весельчак Рудольф (Болек Поливка) совершенно уверен: Женщине просто необходимо бороться за своего мужчину, она должна постоянно стараться удержать его. А главное, женщина не должна с ним скучать!... Рудольф, с завидной для 63-летнего мужчины энергией, довольно успешно реализует свою теорию в повседневной жизни. Разумеется, при таком характере, ему сложно понять наивного и невыносимо корректного зятя Андрея (йиржи Махачек), который с особой ответственностью исполняет свои семейные обязанности, но при этом совершенно не замечает как заскучала его жена ( Петра Гржебичкова). Любящий отец и дружески настроенный тесть решает протянуть Андрею мужскую руку помощи в виде нескольких проверенных советов как оживить обреченный на развал брак. В конце концов, на карту поставлено семейное счастье его единственной дочери... Советы тестя оказались действенными. Вскоре Андрей из скучного зануды с тусклым взглядом превращается в уверенного в себе хозяина положения, которого ценит любовница и обожает собственная жена. Ситуация эта хоть и приятна, но трудно удержима. Уже хотя бы потому, что настоящими хозяевами положения, разумеется, остаются женщины. Андрея ожидает водоворот комических ситуаций, которые он пытается разрулить с типично мужской изворотливостью и изобретательностью, твердо веря в то, что все должно обойтись как нельзя лучше.






    Тех. данные


    Время просмотра: 01:50:14
    Снималось в: Чехия, RWE, Infinity
    Перевод текста: Авторский (одноголосый закадровый) Антон Алексеев
    Субтитры: Вшитые (отключаемые)
    Язык субтитров: Русский, английский, чешский


    Файл
    Тип видео: MKV
    Качество фильма: BDRip 720p
    Информация о видео: MPEG-4 AVC/H.264, ~7612 Кбит/с, 1280x720
    Информация о звуке: Русский AC3, 6 ch, 640 Кбит/с, чешский AC3, 6 ch, 640 Кбит/с)
    MI:

    General
    Complete name : O:Men_in_the_hope_2011_720_BluRay.mkv
    Format : Matroska
    File size : 6.99 GiB
    Duration : 1h 50mn
    Overall bit rate : 9 073 Kbps
    Encoded date : UTC 2014-03-23 07:13:42
    Writing application : mkvmerge v6.3.0 (;You can;t stop me!;) built on Jun 28 2013 20:09:41
    Writing library : libebml v1.3.0 libmatroska v1.4.0

    Video
    ID : 1
    Format : AVC
    Format/Info : Advanced Video Codec
    Format profile : High@L4.1
    Format settings, CABAC : Yes
    Format settings, ReFrames : 9 frames
    Muxing mode : Container profile=Unknown@4.1
    Codec ID : V_MPEG4/ISO/AVC
    Duration : 1h 50mn
    Bit rate : 7 612 Kbps
    Width : 1 280 pixels
    Height : 720 pixels
    Display aspect ratio : 16:9
    Frame rate : 25.000 fps
    Resolution : 8 bits
    Colorimetry : 4:2:0
    Scan type : Progressive
    Bits/(Pixel*Frame) : 0.330
    Stream size : 5.86 GiB (84%)
    Writing library : x264 core 120 r2164 da19765
    Encoding settings : cabac=1 / ref=9 / deblock=1:-3:-3 / analyse=0x3:0x133 / me=tesa / subme=10 / psy=1 / psy_rd=1.05:0.05 / mixed_ref=1 / me_range=24 / chroma_me=1 / trellis=2 / 8x8dct=1 / cqm=0 / deadzone=21,11 / fast_pskip=0 / chroma_qp_offset=-3 / threads=12 / sliced_threads=0 / nr=0 / decimate=0 / interlaced=0 / bluray_compat=0 / constrained_intra=0 / bframes=7 / b_pyramid=2 / b_adapt=2 / b_bias=0 / direct=3 / weightb=1 / open_gop=0 / weightp=2 / keyint=250 / keyint_min=25 / scenecut=40 / intra_refresh=0 / rc=crf / mbtree=0 / crf=16.5 / qcomp=0.60 / qpmin=0 / qpmax=69 / qpstep=4 / ip_ratio=1.40 / pb_ratio=1.30 / aq=1:0.80
    Language : Czech

    Audio #1
    ID : 2
    Format : AC-3
    Format/Info : Audio Coding 3
    Codec ID : A_AC3
    Duration : 1h 50mn
    Bit rate mode : Constant
    Bit rate : 640 Kbps
    Channel(s) : 6 channels
    Channel positions : Front: L C R, Surround: L R, LFE
    Sampling rate : 48.0 KHz
    Stream size : 505 MiB (7%)
    Title : Anton Alekseev
    Language : Russian

    Audio #2
    ID : 3
    Format : AC-3
    Format/Info : Audio Coding 3
    Codec ID : A_AC3
    Duration : 1h 50mn
    Bit rate mode : Constant
    Bit rate : 640 Kbps
    Channel(s) : 6 channels
    Channel positions : Front: L C R, Surround: L R, LFE
    Sampling rate : 48.0 KHz
    Stream size : 505 MiB (7%)
    Title : original
    Language : Czech

    Text #1
    ID : 4
    Format : UTF-8
    Codec ID : S_TEXT/UTF8
    Codec ID/Info : UTF-8 Plain Text
    Title : sub notabenoid
    Language : Russian

    Text #2
    ID : 5
    Format : UTF-8
    Codec ID : S_TEXT/UTF8
    Codec ID/Info : UTF-8 Plain Text

    Text #3
    ID : 6
    Format : UTF-8
    Codec ID : S_TEXT/UTF8
    Codec ID/Info : UTF-8 Plain Text

    Text #4
    ID : 7
    Format : UTF-8
    Codec ID : S_TEXT/UTF8
    Codec ID/Info : UTF-8 Plain Text
    Title : SDH

    Text #5
    ID : 8
    Format : UTF-8
    Codec ID : S_TEXT/UTF8
    Codec ID/Info : UTF-8 Plain Text
    Language : Czech

    Menu
    00:00:00.000 : en:00:00:00.000
    00:07:39.240 : en:00:07:39.240
    00:12:12.640 : en:00:12:12.640
    00:21:18.600 : en:00:21:18.600
    00:31:40.600 : en:00:31:40.600
    00:39:55.080 : en:00:39:55.080
    00:51:33.960 : en:00:51:33.960
    00:59:57.160 : en:00:59:57.160
    01:12:14.520 : en:01:12:14.520
    01:21:18.640 : en:01:21:18.640
    01:29:00.880 : en:01:29:00.880
    01:44:34.920 : en:01:44:34.920
    Скриншоты для ознакомления



    Размер скачиваемого торрента: 6.99 GB (7501165750 Bytes)

    Мужские надежды / Muzi v nadeji (2011) BDRip 720р | A1 скачать через торрент бесплатно
    загрузка...
    Рейтинг →
     (голосов: 1, оценка 3/5, голосовать можно 1 раз )

    Другие торренты по теме:

  • Мужские надежды / Muzi v nadeji (2011) HDRip от MediaClub | КПК
  • Мужские надежды / Men in the hope / Mui v nadji (2011) HDRip-AVC от Rulya74 | A
  • Мужские надежды / Mui v nadji (2011) BDRip от Rulya74 | A скачать через торрент бесплатно
  • Мужские надежды / Mui v nadji (2011) HDRip от Scarabey | A


    • Комментарии (0):

      Информация

      Информация

        Посетители, находящиеся в группе Гости, не могут оставлять комментарии в данной новости.

        ↓ Меню



        ↓ Опрос

        А Вы добавили сайт в закладки?
        Да
        Не


        Top 10 за месяц (Фильмы)