.
Авторизация | Регистрация
Хочешь лучшие торренты? Добавь свой email!
Добавить
» » Хоббит: Пустошь Смауга / The Hobbit: The Desolation of Smaug (2013) BDRip-AVC | iPhone | D | iTunes скачать через торрент бесплатно




    Хоббит: Пустошь Смауга / The Hobbit: The Desolation of Smaug (2013) BDRip-AVC | iPhone | D | iTunes скачать через торрент бесплатно

    Опубликовал: Админ | Дата: 27-02-2015, 11:10 | Просмотров: 277



    Хоббит: Пустошь Смауга / The Hobbit: The Desolation of Smaug (2013) BDRip-AVC | iPhone | D

    Русское название: Хоббит: Пустошь Смауга
    Русское название в мировом прокате: The Hobbit: The Desolation of Smaug
    Создали в: 2013
    Категория жанра: фэнтези, приключения
    Главный режиссер: Питер Джексон
    Актеры: Мартин Фриман, Ричард Армитедж, Иэн МакКеллен, Эванджелин Лилли, Орландо Блум, Люк Эванс, Бенедикт Камбербэтч, Ли Пейс, Кен Стотт, Эйдан Тернер

    Сюжет фильма:
    Продолжение путешествия хоббита Бильбо Бэггинса, волшебника Гэндальфа и 13 отважных гномов. Их компания обязана завершить своё путешествие к Одинокой горе. Там они должны встретиться с величайшей опасностью из всех - созданием куда более ужасающим, чем все их прошлые противники, которое проверит на прочность не только их мужество, но крепость их дружбы и правильность выбранного пути, - драконом Смаугом.


    Снималось в: США, Новая Зеландия
    Киностудия: ChannelMetro-Goldwyn-Mayer (MGM), New Line Cinema
    Время просмотра: 02:41:16
    Перевод текста: Русский дублированный

    Файл
    Кодек для видео: H.264
    Качество фильма: BDRip-AVC 480p
    Информация о видео: 640x356@851x356 (2.40:1) at 23.976 fps, AVC at 1600 kbps
    Информация о звуке:
    1: АAС 2.0 150 kbps - Русский дублированный (iTunes)
    Субтитры: Отсутствуют

    MI

    General
    Complete name : C:CREATE264mod0outThe Hobbit-The Desolation of Smaug.2013 (SD).m4v
    Format : MPEG-4
    Codec ID : M4V
    File size : 1.97 GiB
    Duration : 2h 41mn
    Overall bit rate mode : Variable
    Overall bit rate : 1 750 Kbps
    Movie name : Хоббит: Пустошь Смауга
    Performer : Peter Jackson
    Genre : Action Adventure
    ContentType : Short Film
    Deion : После успешного перехода через Туманные горы Торин и компания вынуждены обратиться за помощью к могучему незнакомцу, прежде чем отправиться в опасное Лихолесье без волшебника.
    Recorded date : UTC 2013-12-02 08:00:00
    Encoded date : UTC 2014-03-24 18:40:13
    Tagged date : UTC 2014-03-24 18:45:09
    Copyright : Metro-Goldwyn-Mayer (MGM), New Line Cinema
    Cover : Yes
    Comment : Beyond darkness... beyond desolation... lies the greatest danger of all
    ContentRating : mpaa|PG-13|300|

    Title/Sort : The Hobbit: The Desolation of Smaug
    LongDeion : мПосле успешного перехода через Туманные горы Торин и компания вынуждены обратиться за помощью к могучему незнакомцу, прежде чем отправиться в опасное Лихолесье без волшебника. Их компания обязана завершить своё путешествие к Одинокой горе, где Бэггинсу нужно будет найти потайную дверь, чтобы добраться до клада Смауга...
    AppleStoreCatalogID : 767757443
    Vendor : Apple:vendor_id:2013-408876

    Video
    ID : 1
    Format : AVC
    Format/Info : Advanced Video Codec
    Format profile : Baseline@L3.0
    Format settings, CABAC : No
    Format settings, ReFrames : 2 frames
    Codec ID : avc1
    Codec ID/Info : Advanced Video Coding
    Duration : 2h 41mn
    Bit rate : 1 592 Kbps
    Maximum bit rate : 6 623 Kbps
    Width : 640 pixels
    Height : 356 pixels
    Display aspect ratio : 2.40:1
    Frame rate mode : Constant
    Frame rate : 23.976 fps
    Color space : YUV
    Chroma subsampling : 4:2:0
    Bit depth : 8 bits
    Scan type : Progressive
    Bits/(Pixel*Frame) : 0.292
    Stream size : 1.79 GiB (91%)
    Language : English
    Encoded date : UTC 2014-03-24 18:40:13
    Tagged date : UTC 2014-03-24 18:40:27
    Matrix coefficients : BT.709

    Audio
    ID : 2
    Format : AAC
    Format/Info : Advanced Audio Codec
    Format profile : LC
    Codec ID : 40
    Duration : 2h 41mn
    Bit rate mode : Variable
    Bit rate : 147 Kbps
    Maximum bit rate : 178 Kbps
    Channel(s) : 2 channels
    Channel positions : Front: L R
    Sampling rate : 48.0 KHz
    Compression mode : Lossy
    Stream size : 170 MiB (8%)
    Language : English
    Encoded date : UTC 2014-03-24 18:40:23
    Tagged date : UTC 2014-03-24 18:40:27
    iTunes tags

    Sort Name: The Hobbit: The Desolation of Smaug
    XID: Apple:vendor_id:2013-408876
    Content ID: 767757443
    Copyright: Metro-Goldwyn-Mayer (MGM), New Line Cinema
    ScreenWriters: Фрэнсис Уолш, Филиппа Бойенс, Питер Джексон
    Producers: Кэролин Блэквуд, Кэролинн Каннингэм, Тоби Эммерик
    Director: Питер Джексон
    Cast: Мартин Фриман, Иэн МакКеллен, Ричард Армитедж, Кен Стотт, Эйдан Тернер, Орландо Блум, Эванджелин Лилли, Бенедикт Камбербэтч, Люк Эванс, Ли Пейс
    Rating: PG-13
    Long Deion: мПосле успешного перехода через Туманные горы Торин и компания вынуждены обратиться за помощью к могучему незнакомцу, прежде чем отправиться в опасное Лихолесье без волшебника. Их компания обязана завершить своё путешествие к Одинокой горе, где Бэггинсу нужно будет найти потайную дверь, чтобы добраться до клада Смауга...
    Deion: После успешного перехода через Туманные горы Торин и компания вынуждены обратиться за помощью к могучему незнакомцу, прежде чем отправиться в опасное Лихолесье без волшебника.
    Release Date: 2013-12-02T08:00:00Z
    Genre: Action Adventure
    Artist: Peter Jackson
    Name: Хоббит: Пустошь Смауга
    Comments: Beyond darkness... beyond desolation... lies the greatest danger of all
    x264

    x264 info: frame I:4358 Avg QP:18.06 size: 24946
    x264 info: frame P:227657 Avg QP:19.73 size: 7984
    x264 info: mb I I16..4: 27.8% 0.0% 72.2%
    x264 info: mb P I16..4: 1.3% 0.0% 3.1% P16..4: 51.0% 19.0% 9.7% 1.9% 0.8% skip:13.2%
    x264 info: coded y,uvDC,uvAC intra: 61.0% 64.1% 30.2% inter: 45.4% 31.6% 11.7%
    x264 info: i16 v,h,dc,p: 42% 15% 11% 31%
    x264 info: i4 v,h,dc,ddl,ddr,vr,hd,vl,hu: 34% 11% 14% 6% 8% 9% 6% 7% 5%
    x264 info: i8c dc,h,v,p: 60% 13% 21% 6%
    x264 info: ref P L0: 78.4% 21.6%
    x264 info: kb/s:1592.42




    Залил: gekka
    Размер скачиваемого торрента: 1.97 GB (2116945045 Bytes)

    Хоббит: Пустошь Смауга / The Hobbit: The Desolation of Smaug (2013) BDRip-AVC | iPhone | D | iTunes скачать через торрент бесплатно
    загрузка...
    Рейтинг →
     (голосов: 1, оценка 3/5, голосовать можно 1 раз )

    Другие торренты по теме:

  • Хоббит: Пустошь Смауга / The Hobbit: The Desolation of Smaug (2013) HD 1080p | Трейлер
  • Хоббит: Пустошь Смауга (2013) скачать через торрент бесплатно
  • OST - Хоббит: Пустошь Смауга / The Hobbit: The Desolation of Smaug (2013) MP3 скачать через торрент бесплатно
  • Хоббит: Пустошь Смауга / The Hobbit: The Desolation of Smaug (2013) HD 720p | Трейлер
  • Хоббит: Пустошь Смауга / The Hobbit: The Desolation of Smaug (2013) FLAC скачать через торрент бесплатно
  • Хоббит: Пустошь Смауга / The Hobbit: The Desolation of Smaug (2013) CAMRip скачать через торрент бесплатно
  • Хоббит: Пустошь Смауга / The Hobbit: The Desolation of Smaug (2013) CAMRip*PROPER* скачать через торрент бесплатно
  • Хоббит: Пустошь Смауга / The Hobbit: The Desolation of Smaug (2013) CAMRip *PROPER* скачать через торрент бесплатно


    • Комментарии (0):

      Информация

      Информация

        Посетители, находящиеся в группе Гости, не могут оставлять комментарии в данной новости.

        ↓ Меню



        ↓ Опрос

        А Вы добавили сайт в закладки?
        Да
        Не


        Top 10 за месяц (Фильмы)