.
Авторизация | Регистрация
Хочешь лучшие торренты? Добавь свой email!
Добавить
» » Кибергеддон / Cybergeddon (2012) WEB-DLRip | P2 скачать через торрент бесплатно




    Кибергеддон / Cybergeddon (2012) WEB-DLRip | P2 скачать через торрент бесплатно

    Опубликовал: Админ | Дата: 27-02-2015, 11:10 | Просмотров: 225


    Детально о кино
    Русское название: Кибергеддон / Cybergeddon
    Создали в: 2012
    Категория жанра: Триллер, Боевик
    Главный режиссер: Диего Веласко
    Актеры: Мисси Перегрим, Элиас Эдраки, Кик Гарри, Мэнни Монтана, Оливье Мартинес, Тоня Ли Уильямс, Соня Смитс, Джоэль Келлер, Кристин Хорн, Аллен Кэн


    Сюжет:
    Спецагента ФБР Хлою Джослин начинает преследовать собственное ведомство. Как вскоре выяснилось, это месть личного врага агента Джослин, киберпреступника Густава Добрева, которого Хлоя арестовала год назад. При аресте злодей пообещал не остаться в долгу и теперь, судьба бывшего спецагента Джослин, а заодно, и миллиардов человек на Земле, в ее собственных руках...

    *Рип с отдельных 9 эпизодов, так как этот фильм был по задумке авторов разбит на 9 серий по 9-10 минут каждая и собран продолжительностью в полнометражный фильм.




    Тех. данные


    Время просмотра: 01:25:33
    Снималось в: США, Канада, Aircraft Pictures, Dare To Pass
    Перевод текста: Профессиональный (двухголосый закадровый) студия Elrom


    Файл
    Тип видео: AVI
    Качество фильма: WEB-DLRip
    Информация о видео: Xvid 720x400 23.976fps 1890kbps
    Информация о звуке: Аудио 1: Dolby AC3 48000Hz stereo 192kbps Rus, Аудио 2: Dolby AC3 48000Hz stereo 192kbps Eng
    MI:

    General
    Complete name : Q:Cybergeddon.WebSeriesPack.1080pKibergeddon.2012.WEB-DLrip.XviD.Rus-Eng_25KADR.avi
    Format : AVI
    Format/Info : Audio Video Interleave
    File size : 1.37 GiB
    Duration : 1h 25mn
    Overall bit rate : 2 289 Kbps
    Movie name : Kibergeddon 2012
    Original source form/Distributed : WEB-DL (1080)
    Genre : Action / Thriller
    Copyright : 25KADR
    Comment : DVO (Elrom studio)

    Video
    ID : 0
    Format : MPEG-4 Visual
    Format profile : Advanced Simple@L5
    Format settings, BVOP : Yes
    Format settings, QPel : No
    Format settings, GMC : No warppoints
    Format settings, Matrix : Default (MPEG)
    Codec ID : XVID
    Codec ID/Hint : XviD
    Duration : 1h 25mn
    Bit rate : 1 891 Kbps
    Width : 720 pixels
    Height : 400 pixels
    Display aspect ratio : 16:9
    Frame rate : 23.976 fps
    Color space : YUV
    Chroma subsampling : 4:2:0
    Bit depth : 8 bits
    Scan type : Progressive
    Bits/(Pixel*Frame) : 0.274
    Stream size : 1.13 GiB (83%)
    Writing library : XviD 64

    Audio #1
    ID : 1
    Format : AC-3
    Format/Info : Audio Coding 3
    Mode extension : CM (complete main)
    Codec ID : 2000
    Duration : 1h 25mn
    Bit rate mode : Constant
    Bit rate : 192 Kbps
    Channel(s) : 2 channels
    Channel positions : Front: L R
    Sampling rate : 48.0 KHz
    Bit depth : 16 bits
    Stream size : 118 MiB (8%)
    Alignment : Split accross interleaves
    Interleave, duration : 42 ms (1.00 video frame)
    Interleave, preload duration : 500 ms
    Language : Russian

    Audio #2
    ID : 2
    Format : AC-3
    Format/Info : Audio Coding 3
    Mode extension : CM (complete main)
    Codec ID : 2000
    Duration : 1h 25mn
    Bit rate mode : Constant
    Bit rate : 192 Kbps
    Channel(s) : 2 channels
    Channel positions : Front: L R
    Sampling rate : 48.0 KHz
    Bit depth : 16 bits
    Stream size : 118 MiB (8%)
    Alignment : Split accross interleaves
    Interleave, duration : 42 ms (1.00 video frame)
    Interleave, preload duration : 500 ms
    Скриншоты для ознакомления



    Размер скачиваемого торрента: 1.37 GB (1469003520 Bytes)

    Кибергеддон / Cybergeddon (2012) WEB-DLRip | P2 скачать через торрент бесплатно
    загрузка...
    Рейтинг →
     (голосов: 1, оценка 5/5, голосовать можно 1 раз )

    Другие торренты по теме:



      Комментарии (0):

      Информация

      Информация

        Посетители, находящиеся в группе Гости, не могут оставлять комментарии в данной новости.

        ↓ Меню



        ↓ Опрос

        А Вы добавили сайт в закладки?
        Да
        Не


        Top 10 за месяц (Фильмы)