.
Авторизация | Регистрация
Хочешь лучшие торренты? Добавь свой email!
Добавить
» » Хоббит: Пустошь Смауга / The Hobbit: The Desolation of Smaug (2013) BDRip 1080p от HYPERHD | 2XDub iTunes Russia, L1 скачать через торрент бесплатно




    Хоббит: Пустошь Смауга / The Hobbit: The Desolation of Smaug (2013) BDRip 1080p от HYPERHD | 2XDub iTunes Russia, L1 скачать через торрент бесплатно

    Опубликовал: Админ | Дата: 27-02-2015, 11:10 | Просмотров: 319



    Снималось в: США, Новая Зеландия
    Категория жанра: фэнтези, приключения
    Создали в: 2013
    Время просмотра: 02:41:17
    Озвучка:
    Дубляж - iTunes Russia
    Одноголосый закадровый - Pashaup
    Дубляж (Укр) - iTunes Russia
    Главный режиссёр: Питер Джексон

    Сюжет: Продолжение путешествия хоббита Бильбо Бэггинса, волшебника Гэндальфа и 13 отважных гномов. Их компания обязана завершить своё путешествие к Одинокой горе. Там они должны встретиться с величайшей опасностью из всех — созданием куда более ужасающим, чем все их прошлые противники, которое проверит на прочность не только их мужество, но крепость их дружбы и правильность выбранного пути, — драконом Смаугом.

    Актеры: Мартин Фриман, Ричард Армитедж, Иэн МакКеллен, Эванджелин Лилли, Орландо Блум, Люк Эванс, Бенедикт Камбербэтч, Ли Пейс, Кен Стотт, Эйдан Тернер

    Релиз подготовил:

    Качество фильма: BDRip 1080p
    Контейнер: MKV
    Информация о видео: MPEG-4 AVC / 13.9 Mbps / 1920x800 / 23,976 fps / 2.40:1
    Информация о звуке 1: Russian / 384 / 5.1 / 48 kHz / AC3 - iTunes Russia
    Информация о звуке 2: Russian / 192 / 2.0 / 48 kHz / AC3 - Pashaup
    Информация о звуке 3: Ukrainian / 192 / 2.0 / 48 kHz / AC3 - iTunes Russia
    Информация о звуке 4: English / 1536 kbps / 5.1 / 48 kHz / DTS - Original
    Информация о звуке 5: English / 640 kpbs / 5.1 / 48 kHz / AC3 - Original
    Субтитры: Русские, украинские, английские
    Чаптеры: есть (подписанные)
    Семпл



    Скриншоты для ознакомления

    МедиаИнфо
    General
    Unique ID : 235289467817240405615297619758696279358 (0xB1031A6923F4CF67BD525CAC6796AD3E)
    Complete name : D:The Hobbit The Desolation of Smaug 2013 BDRip 1080p HYPERHD.mkv
    Format : Matroska
    Format version : Version 4 / Version 2
    File size : 19.0 GiB
    Duration : 2h 41mn
    Overall bit rate : 16.9 Mbps
    Movie name : The Hobbit: The Desolation of Smaug 2013 BDRip 1080p HYPERHD
    Encoded date : UTC 2014-03-24 04:49:47
    Writing application : mkvmerge v6.8.0 (;Theme for Great Cities;) 64bit built on Mar 2 2014 21:34:26
    Writing library : libebml v1.3.0 libmatroska v1.4.1
    Attachment : Yes

    Video
    ID : 1
    Format : AVC
    Format/Info : Advanced Video Codec
    Format profile : High@L4.1
    Format settings, CABAC : Yes
    Format settings, ReFrames : 5 frames
    Codec ID : V_MPEG4/ISO/AVC
    Duration : 2h 41mn
    Bit rate : 13.9 Mbps
    Width : 1 920 pixels
    Height : 800 pixels
    Display aspect ratio : 2.40:1
    Frame rate mode : Constant
    Frame rate : 23.976 fps
    Color space : YUV
    Chroma subsampling : 4:2:0
    Bit depth : 8 bits
    Scan type : Progressive
    Bits/(Pixel*Frame) : 0.379
    Stream size : 15.4 GiB (81%)
    Title : The Hobbit: The Desolation of Smaug 2013 BDRip 1080p HYPERHD
    Writing library : x264 core 138 r2358kMod 9e941d1
    Encoding settings : cabac=1 / ref=5 / deblock=1:-3:-3 / analyse=0x3:0x113 / me=tesa / subme=11 / psy=1 / fade_compensate=0.00 / psy_rd=0.90:0.00 / mixed_ref=1 / me_range=32 / chroma_me=1 / trellis=2 / 8x8dct=1 / cqm=0 / deadzone=21,11 / fast_pskip=0 / chroma_qp_offset=-2 / threads=18 / lookahead_threads=3 / sliced_threads=0 / nr=0 / decimate=0 / interlaced=0 / bluray_compat=0 / constrained_intra=0 / bframes=8 / b_pyramid=2 / b_adapt=2 / b_bias=0 / direct=3 / weightb=1 / open_gop=0 / weightp=2 / keyint=250 / keyint_min=23 / scenecut=40 / intra_refresh=0 / rc_lookahead=40 / rc=2pass / mbtree=0 / bitrate=13950 / ratetol=1.0 / qcomp=0.70 / qpmin=10 / qpmax=69 / qpstep=4 / cplxblur=20.0 / qblur=0.5 / vbv_maxrate=40000 / vbv_bufsize=30000 / nal_hrd=none / ip_ratio=1.35 / pb_ratio=1.10 / aq=3:0.60
    Language : English
    Default : Yes
    Forced : No

    Audio #1
    ID : 2
    Format : AC-3
    Format/Info : Audio Coding 3
    Mode extension : CM (complete main)
    Format settings, Endianness : Big
    Codec ID : A_AC3
    Duration : 2h 41mn
    Bit rate mode : Constant
    Bit rate : 384 Kbps
    Channel count : 6 channels
    Channel positions : Front: L C R, Side: L R, LFE
    Sampling rate : 48.0 KHz
    Bit depth : 16 bits
    Compression mode : Lossy
    Stream size : 443 MiB (2%)
    Title : Dub iTunes Russia
    Language : Russian
    Default : Yes
    Forced : No

    Audio #2
    ID : 3
    Format : AC-3
    Format/Info : Audio Coding 3
    Mode extension : CM (complete main)
    Format settings, Endianness : Big
    Codec ID : A_AC3
    Duration : 2h 41mn
    Bit rate mode : Constant
    Bit rate : 192 Kbps
    Channel count : 2 channels
    Channel positions : Front: L R
    Sampling rate : 48.0 KHz
    Bit depth : 16 bits
    Compression mode : Lossy
    Stream size : 222 MiB (1%)
    Title : VO Pashaup
    Language : Russian
    Default : No
    Forced : No

    Audio #3
    ID : 4
    Format : AC-3
    Format/Info : Audio Coding 3
    Mode extension : CM (complete main)
    Format settings, Endianness : Big
    Codec ID : A_AC3
    Duration : 2h 41mn
    Bit rate mode : Constant
    Bit rate : 192 Kbps
    Channel count : 2 channels
    Channel positions : Front: L R
    Sampling rate : 48.0 KHz
    Bit depth : 16 bits
    Compression mode : Lossy
    Stream size : 222 MiB (1%)
    Title : Dub iTunes Russia
    Language : Ukrainian
    Default : No
    Forced : No

    Audio #4
    ID : 5
    Format : DTS
    Format/Info : Digital Theater Systems
    Mode : 16
    Format settings, Endianness : Big
    Codec ID : A_DTS
    Duration : 2h 41mn
    Bit rate mode : Constant
    Bit rate : 1 509 Kbps
    Channel count : 6 channels
    Channel positions : Front: L C R, Side: L R, LFE
    Sampling rate : 48.0 KHz
    Bit depth : 24 bits
    Compression mode : Lossy
    Stream size : 1.70 GiB (9%)
    Title : Original
    Language : English
    Default : No
    Forced : No

    Audio #5
    ID : 6
    Format : AC-3
    Format/Info : Audio Coding 3
    Mode extension : CM (complete main)
    Format settings, Endianness : Big
    Codec ID : A_AC3
    Duration : 2h 41mn
    Bit rate mode : Constant
    Bit rate : 640 Kbps
    Channel count : 6 channels
    Channel positions : Front: L C R, Side: L R, LFE
    Sampling rate : 48.0 KHz
    Bit depth : 16 bits
    Compression mode : Lossy
    Stream size : 738 MiB (4%)
    Title : Original
    Language : English
    Default : No
    Forced : No

    Text #1
    ID : 7
    Format : UTF-8
    Codec ID : S_TEXT/UTF8
    Codec ID/Info : UTF-8 Plain Text
    Title : Forced iTunes Russia
    Language : Russian
    Default : Yes
    Forced : No

    Text #2
    ID : 8
    Format : UTF-8
    Codec ID : S_TEXT/UTF8
    Codec ID/Info : UTF-8 Plain Text
    Title : Full iTunes Russia
    Language : Russian
    Default : No
    Forced : No

    Text #3
    ID : 9
    Format : UTF-8
    Codec ID : S_TEXT/UTF8
    Codec ID/Info : UTF-8 Plain Text
    Title : Full Notabenoid
    Language : Russian
    Default : No
    Forced : No

    Text #4
    ID : 10
    Format : UTF-8
    Codec ID : S_TEXT/UTF8
    Codec ID/Info : UTF-8 Plain Text
    Title : Forced iTunes Russia
    Language : Ukrainian
    Default : No
    Forced : No

    Text #5
    ID : 11
    Format : UTF-8
    Codec ID : S_TEXT/UTF8
    Codec ID/Info : UTF-8 Plain Text
    Title : Full iTunes Russia
    Language : Ukrainian
    Default : No
    Forced : No

    Text #6
    ID : 12
    Format : UTF-8
    Codec ID : S_TEXT/UTF8
    Codec ID/Info : UTF-8 Plain Text
    Title : Full
    Language : English
    Default : No
    Forced : No

    Text #7
    ID : 13
    Format : UTF-8
    Codec ID : S_TEXT/UTF8
    Codec ID/Info : UTF-8 Plain Text
    Title : SDH
    Language : English
    Default : No
    Forced : No

    Text #8
    ID : 14
    Format : UTF-8
    Codec ID : S_TEXT/UTF8
    Codec ID/Info : UTF-8 Plain Text
    Title : SDH Colored
    Language : English
    Default : No
    Forced : No

    Text #9
    ID : 15
    Format : PGS
    Muxing mode : zlib
    Codec ID : S_HDMV/PGS
    Codec ID/Info : The same subtitle format used on BDs/HD-DVDs
    Title : Full
    Language : French
    Default : No
    Forced : No

    Text #10
    ID : 16
    Format : PGS
    Muxing mode : zlib
    Codec ID : S_HDMV/PGS
    Codec ID/Info : The same subtitle format used on BDs/HD-DVDs
    Title : Full
    Language : Portuguese
    Default : No
    Forced : No

    Text #11
    ID : 17
    Format : UTF-8
    Codec ID : S_TEXT/UTF8
    Codec ID/Info : UTF-8 Plain Text
    Title : Full
    Language : Romanian
    Default : No
    Forced : No

    Text #12
    ID : 18
    Format : PGS
    Muxing mode : zlib
    Codec ID : S_HDMV/PGS
    Codec ID/Info : The same subtitle format used on BDs/HD-DVDs
    Title : Full
    Language : Spanish
    Default : No
    Forced : No

    Menu
    00:00:00.000 : en:The Quest For Erebor
    00:05:44.094 : en:Wilderland
    00:10:10.985 : en:The Master Summons
    00:11:10.128 : en:A Commander Of Legions
    00:13:50.204 : en:Queer Lodgings
    00:17:12.657 : en:The Elven-Gate
    00:21:25.326 : en:Mirkwood
    00:24:33.472 : en:Flies And Spiders
    00:33:03.273 : en:The Woodland Realm
    00:36:05.747 : en:THe Elvenking
    00:39:38.960 : en:King And Captain
    00:41:29.654 : en:Feast Of Starlight
    00:44:27.290 : en:Barrels Out Of Bound
    00:55:01.757 : en:The High Fells
    00:58:41.768 : en:Bard The Bowman
    01:02:05.138 : en:The Nature Of Evil
    01:05:29.592 : en:Smuggled Cargo
    01:09:06.267 : en:Lake-Town
    01:11:29.118 : en:The Master Of Lake-Town
    01:13:11.762 : en:The Home Of Bard
    01:19:14.959 : en:It is our fight
    01:20:48.469 : en:The Prophecy
    01:23:12.529 : en:A Warm Welcome
    01:27:09.641 : en:The Lonely Mountain
    01:30:45.482 : en:A Spell Of Concealment
    01:33:29.813 : en:On The Doorstep
    01:41:57.194 : en:Kingsfoil
    01:42:24.472 : en:The Courage Of Hobbits
    01:44:08.033 : en:The Enemy Revealed
    01:47:34.114 : en:Inside Information
    01:56:46.333 : en:The Black Arrow
    01:57:28.917 : en:In The Dragon;s Lair
    01:58:03.410 : en:Under Arrest
    01:59:42.300 : en:Bilbo The Burgler
    02:01:30.575 : en:Smaug The Magnificent
    02:04:04.312 : en:Orc Attack
    02:07:58.462 : en:Confrontations
    02:09:43.109 : en:Elvish Medicine
    02:10:58.642 : en:Hunter And Hunted
    02:12:31.443 : en:She Walks In Starlight
    02:13:54.318 : en:A Desperate Plan
    02:16:25.427 : en:Duel In Lake Town
    02:18:51.490 : en:The Forges Relit
    02:26:03.588 : en:Smaug The Golden
    02:30:51.209 : en:Credits

    Размер скачиваемого торрента: 19.04 GB (20438885371 Bytes)

    Хоббит: Пустошь Смауга / The Hobbit: The Desolation of Smaug (2013) BDRip 1080p от HYPERHD | 2XDub iTunes Russia, L1 скачать через торрент бесплатно
    загрузка...
    Рейтинг →
     (голосов: 1, оценка 3/5, голосовать можно 1 раз )

    Другие торренты по теме:

  • Хоббит: Пустошь Смауга / The Hobbit: The Desolation of Smaug (2013) HD 1080p | Трейлер
  • Хоббит: Пустошь Смауга (2013) скачать через торрент бесплатно
  • OST - Хоббит: Пустошь Смауга / The Hobbit: The Desolation of Smaug (2013) MP3 скачать через торрент бесплатно
  • Хоббит: Пустошь Смауга / The Hobbit: The Desolation of Smaug (2013) HD 720p | Трейлер
  • Хоббит: Пустошь Смауга / The Hobbit: The Desolation of Smaug (2013) FLAC скачать через торрент бесплатно
  • Хоббит: Пустошь Смауга / The Hobbit: The Desolation of Smaug (2013) CAMRip скачать через торрент бесплатно
  • Хоббит: Пустошь Смауга / The Hobbit: The Desolation of Smaug (2013) CAMRip*PROPER* скачать через торрент бесплатно
  • Хоббит: Пустошь Смауга / The Hobbit: The Desolation of Smaug (2013) CAMRip *PROPER* скачать через торрент бесплатно


    • Комментарии (0):

      Информация

      Информация

        Посетители, находящиеся в группе Гости, не могут оставлять комментарии в данной новости.

        ↓ Меню



        ↓ Опрос

        А Вы добавили сайт в закладки?
        Да
        Не


        Top 10 за месяц (Фильмы)