.
Авторизация | Регистрация
Хочешь лучшие торренты? Добавь свой email!
Добавить
» » Уцелевший / Lone Survivor (2013) BDRip | Лицензия скачать торрент бесплатно




    Уцелевший / Lone Survivor (2013) BDRip | Лицензия скачать торрент бесплатно

    Опубликовал: Админ | Дата: 27-02-2015, 11:10 | Просмотров: 326



    Детально о кино
    Русское название: Уцелевший
    Русское название в мировом прокате: Lone Survivor
    Создали в: 2013
    Категория жанра: боевик, драма, военный
    Главный режиссер: Питер Берг
    Актеры: Марк Уолберг, Тейлор Китч, Эмиль Хирш, Бен Фостер, Юсуф Азами, Али Сулиман, Эрик Бана, Александр Людвиг, Рич Тинг, Дэн Билзериан

    Сюжет фильма:
    Афганистан, 2005 год. Команда американских спецназовцев получает задание обезвредить известного лидера талибов Ахмада Шаха. Попав в ловушку, солдаты принимают неравный кровопролитный бой, и все они погибают героями. Все, кроме одного. Для уцелевшего Маркуса Латтрела бой только начинается: он любой ценой должен выжить и пробраться к своим. Когда почти всё потеряно, ему решается помочь Гулаб — мирный человек, ненавидящий войну.




    Снималось в: США
    Киностудия: Emmett/Furla Films, Envision Entertainment, Film 44
    Время просмотра: 02:01:14
    Перевод текста: Дублированный (Лицензия)

    Файл
    Кодек для видео: XviD
    Качество фильма: BDRip (Исх. Blu-Ray Remux 1080p)
    Информация о видео: 688x288 (2.39:1), 24.000 fps, XviD build 50 ~723 kbps avg, 0.15 bit/pixel
    Информация о звуке: 48 kHz, MPEG Layer 3, 2 ch, ~128.00 kbps avg
    Субтитры: нет

    Семпл

    MediaInfo

    Общее
    Полное имя : S:ФильмыУцелевший. 2013. BDRip.avi
    Формат : AVI
    Формат/Информация : Audio Video Interleave
    Размер файла : 746 Мбайт
    Продолжительность : 2 ч. 1 м.
    Общий поток : 860 Кбит/сек
    Программа кодирования : VirtualDubMod 1.5.10.3 | www.virtualdub-fr.org || (build 2550/release)
    Библиотека кодирования : VirtualDubMod build 2550/release

    Видео
    Идентификатор : 0
    Формат : MPEG-4 Visual
    Профиль формата : Advanced Simple@L5
    Параметр BVOP формата : 2
    Параметр QPel формата : Нет
    Параметр GMC формата : Без точки перехода
    Параметр матрицы формата : Выборочная
    Идентификатор кодека : XVID
    Идентификатор кодека/Подсказка : XviD
    Продолжительность : 2 ч. 1 м.
    Битрейт : 723 Кбит/сек
    Ширина : 688 пикс.
    Высота : 288 пикс.
    Соотношение сторон : 2,40:1
    Частота кадров : 24,000 кадр/сек
    Цветовое пространство : YUV
    Подвыборка цветности : 4:2:0
    Битовая глубина : 8 бит
    Тип развёртки : Прогрессивная
    Метод сжатия : С потерями
    Бит/(Пиксели*Кадры) : 0.152
    Размер потока : 627 Мбайт (84%)
    Библиотека кодирования : XviD 1.2.1 (UTC 2008-12-04)

    Аудио
    Идентификатор : 1
    Формат : MPEG Audio
    Версия формата : Version 1
    Профиль формата : Layer 3
    Идентификатор кодека : 55
    Идентификатор кодека/Подсказка : MP3
    Продолжительность : 2 ч. 1 м.
    Вид битрейта : Постоянный
    Битрейт : 128 Кбит/сек
    Каналы : 2 канала
    Частота : 48,0 КГц
    Метод сжатия : С потерями
    Размер потока : 111 Мбайт (15%)
    Выравнивание : Соединение по промежуткам
    Продолжительность промежутка : 42 мс. (1,00 видеокадр)
    Время предзагрузки промежутка : 504 ms
    Библиотека кодирования : LAME3.99r
    Залил: fedorjuk
    Размер скачиваемого торрента: 745.67 MB (781891584 Bytes)


    Уцелевший / Lone Survivor (2013) BDRip | Лицензия торрент скачать бесплатно
    загрузка...
    Рейтинг →
     (голосов: 1, оценка 4/5, голосовать можно 1 раз )

    Другие торренты по теме:

  • Уцелевший / Lone Survivor (2013) DVDScr | Sub скачать через торрент бесплатно
  • Уцелевший / Lone Survivor (2013) DVDScr | L1
  • Уцелевший / Lone Survivor (2013) DVDScr | L2 скачать через торрент бесплатно
  • Уцелевший / Lone Survivor (2013) DVDScr-AVC | iPhone скачать через торрент бесплатно
  • Уцелевший / Lone Survivor (2013) HDTVRip 720p | L1, L2 скачать через торрент бесплатно
  • OST - Уцелевший / Lone Survivor (2013) MP3 скачать через торрент бесплатно
  • Уцелевший / Lone Survivor (2013) DVDScr
  • Уцелевший / Lone Survivor (2013) DVDScr | Звук с TS скачать через торрент бесплатно


    • Комментарии (0):

      Информация

      Информация

        Посетители, находящиеся в группе Гости, не могут оставлять комментарии в данной новости.

        ↓ Меню



        ↓ Опрос

        А Вы добавили сайт в закладки?
        Да
        Не


        Top 10 за месяц (Фильмы)