.
Авторизация | Регистрация
Хочешь лучшие торренты? Добавь свой email!
Добавить
» » Мешок с костями / Stephen King: Bag of bones (2011) HDRip от Deadmauvlad | D | Лицензия скачать торрент бесплатно




    Мешок с костями / Stephen King: Bag of bones (2011) HDRip от Deadmauvlad | D | Лицензия скачать торрент бесплатно

    Опубликовал: Админ | Дата: 27-02-2015, 11:10 | Просмотров: 273



    Детально о кино
    Русское название: Мешок с костями
    Русское название в мировом прокате: Stephen King: Bag of bones
    Создали в: 2011
    Категория жанра: ужасы, драма
    Главный режиссер: Мик Гэррис

    Актеры: Пирс Броснан, Мелисса Джордж, Аннабет Гиш, Джейсон Пристли, Мэтт Фрюэр, Джейсон Пристли, Кэйтлин Кармайкл, Питер МакНейл, Уильям Шэллерт

    Сюжет фильма: У писателя Майка Нунэна умирает жена Джоанна. После её гибели известный на весь мир автор мистических романов намеренно делает из себя затворника, отгородившись от остального мира. Но проходит несколько лет, и по стечению обстоятельств писатель встречает девушку Мэтти, в которую влюбляется, хотя и не желает признаваться в этом самому себе. Его жизнь начинается с чистого листа. После признания в своих чувствах новоявленной невесте Майклу придётся столкнуться с не менее жутким кошмаром, чем смерть собственной жены. Мистические приключения; реалистичные жуткие сны; жестокие родственники Мэтти, пытающиеся отправить писателя на тот свет, и конечно же появляющаяся время от времени Джоанна... Её призрак всё время пытается уберечь Майкла от неверного шага...

    Снималось в: США
    Киностудия: AE Network
    Время просмотра: 2 х ~ 01:25:00
    Перевод текста: Дублированный | Лицензия

    Файл
    Кодек для видео: XviD
    Качество фильма: HDRip
    Информация о видео:
    Серия №1 720x400 (1.80:1), 23.976 fps, XviD build 73 ~1169 kbps avg, 0.17 bit/pixel
    Серия №2 720x400 (1.80:1), 23.976 fps, XviD build 73 ~1114 kbps avg, 0.16 bit/pixel

    Информация о звуке:
    48 kHz, AC3 Dolby Digital, 2/0 (L,R) ch, ~128 kbps Дублированный (Лицензия)
    Субтитры: Русские
    MI Релиза
    codeОбщее
    Полное имя : D:Рипы выкладка DeadmauvladРипы готовыеМешок с костями.HDRip.DeadmauvladMeshok.s.kostyami.(1.seriya.iz.2).2011.HDRip.D.Deadmauvlad.avi
    Формат : AVI
    Формат/Информация : Audio Video Interleave
    Размер файла : 747 Мбайт
    Продолжительность : 1 ч. 19 м.
    Общий поток : 1307 Кбит/сек
    Название фильма : Meshok.s.kostyami.(1.seriya.iz.2).2011.HDRip.D.Deadmauvlad
    Режиссёр : Deadmauvlad
    Жанр : Ужасы, Триллер , Драма
    Программа кодирования : VirtualDubMod 1.5.10.3 | www.virtualdub-fr.org || (build 2550/release)
    Формат оригинала/Имя : Фильм
    Правообладатель : Goldenshara
    Примечание : Dub MVO DVO

    Видео
    Идентификатор : 0
    Формат : MPEG-4 Visual
    Профиль формата : Advanced Simple@L5
    Параметр BVOP формата : 4
    Параметр QPel формата : Да
    Параметр GMC формата : Без точки перехода
    Параметр матрицы формата : Default (MPEG)
    Идентификатор кодека : XVID
    Идентификатор кодека/Подсказка : XviD
    Продолжительность : 1 ч. 19 м.
    Битрейт : 1170 Кбит/сек
    Ширина : 720 пикселей
    Высота : 400 пикселей
    Соотношение сторон : 16:9
    Частота кадров : 23,976 кадра/сек
    Цветовое пространство : YUV
    Субдискретизация насыщенности : 4:2:0
    Битовая глубина : 8 бит
    Тип развёртки : Прогрессивная
    Метод сжатия : С потерями
    Бит/(Пиксели*Кадры) : 0.169
    Размер потока : 669 Мбайт (89%)
    Библиотека кодирования : XviD 73

    Аудио
    Идентификатор : 1
    Формат : AC-3
    Формат/Информация : Audio Coding 3
    Расширение режима : CM (complete main)
    Параметр Endianness формата : Big
    Идентификатор кодека : 2000
    Продолжительность : 1 ч. 19 м.
    Вид битрейта : Постоянный
    Битрейт : 128 Кбит/сек
    Каналы : 2 канала
    Расположение каналов : Front: L R
    Частота : 48,0 КГц
    Битовая глубина : 16 бит
    Метод сжатия : С потерями
    Размер потока : 73,2 Мбайт (10%)
    Выравнивание : Разделение по промежуткам
    Продолжительность промежутка : 42 мс. (1,00 видеокадр)
    Время предзагрузки промежутка : 500 мс.

    Общее
    Полное имя : D:Рипы выкладка DeadmauvladРипы готовыеМешок с костями.HDRip.DeadmauvladMeshok.s.kostyami.(2.seriya.iz.2).2011.HDRip.D.Deadmauvlad.avi
    Формат : AVI
    Формат/Информация : Audio Video Interleave
    Размер файла : 748 Мбайт
    Продолжительность : 1 ч. 23 м.
    Общий поток : 1252 Кбит/сек
    Название фильма : Meshok.s.kostyami.(2.seriya.iz.2).2011.HDRip.D.Deadmauvlad
    Режиссёр : Deadmauvlad
    Жанр : Ужасы, Триллер , Драма
    Программа кодирования : VirtualDubMod 1.5.10.3 | www.virtualdub-fr.org || (build 2550/release)
    Формат оригинала/Имя : Фильм
    Правообладатель : Goldenshara
    Примечание : Dub MVO DVO

    Видео
    Идентификатор : 0
    Формат : MPEG-4 Visual
    Профиль формата : Advanced Simple@L5
    Параметр BVOP формата : 4
    Параметр QPel формата : Да
    Параметр GMC формата : Без точки перехода
    Параметр матрицы формата : Default (MPEG)
    Идентификатор кодека : XVID
    Идентификатор кодека/Подсказка : XviD
    Продолжительность : 1 ч. 23 м.
    Битрейт : 1115 Кбит/сек
    Ширина : 720 пикселей
    Высота : 400 пикселей
    Соотношение сторон : 16:9
    Частота кадров : 23,976 кадра/сек
    Цветовое пространство : YUV
    Субдискретизация насыщенности : 4:2:0
    Битовая глубина : 8 бит
    Тип развёртки : Прогрессивная
    Метод сжатия : С потерями
    Бит/(Пиксели*Кадры) : 0.161
    Размер потока : 666 Мбайт (89%)
    Библиотека кодирования : XviD 73

    Аудио
    Идентификатор : 1
    Формат : AC-3
    Формат/Информация : Audio Coding 3
    Расширение режима : CM (complete main)
    Параметр Endianness формата : Big
    Идентификатор кодека : 2000
    Продолжительность : 1 ч. 23 м.
    Вид битрейта : Постоянный
    Битрейт : 128 Кбит/сек
    Каналы : 2 канала
    Расположение каналов : Front: L R
    Частота : 48,0 КГц
    Битовая глубина : 16 бит
    Метод сжатия : С потерями
    Размер потока : 76,4 Мбайт (10%)
    Выравнивание : Разделение по промежуткам
    Продолжительность промежутка : 42 мс. (1,00 видеокадр)
    Время предзагрузки промежутка : 500 мс.

    Общее
    Полное имя : D:Рипы выкладка DeadmauvladРипы готовыеМешок с костями.HDRip.DeadmauvladСубтитрыMeshok.s.kostyami.(1.seriya.iz.2).2011.HDRip.D.Deadmauvlad.srt
    Формат : SubRip
    Размер файла : 63,6 Кбайт

    Текст
    Формат : SubRip
    Метод сжатия : Без потерь

    Общее
    Полное имя : D:Рипы выкладка DeadmauvladРипы готовыеМешок с костями.HDRip.DeadmauvladСубтитрыMeshok.s.kostyami.(2.seriya.iz.2).2011.HDRip.D.Deadmauvlad.srt
    Формат : SubRip
    Размер файла : 74,7 Кбайт

    Текст
    Формат : SubRip
    Метод сжатия : Без потерь/code




    Скриншоты для ознакомления





    Релиз подготовил
    Залил: DJ_V.K_TV
    Размер скачиваемого торрента: 1.46 GB (1567621443 Bytes)

    Мешок с костями / Stephen King: Bag of bones (2011) HDRip от Deadmauvlad | D | Лицензия торрент скачать бесплатно
    загрузка...
    Рейтинг →
     (голосов: 1, оценка 5/5, голосовать можно 1 раз )

    Другие торренты по теме:

  • Мешок с молотками / A bag of hammers (2011) DVDRip | Sub
  • Стивен Кинг: Мешок с костями / Stephen King: Bag of bones (2011) WEB-DL 720p от MediaClub
  • Мешок с костями / Bag Of Bones (2011) WEB-DLRip | ТВ3
  • Мешок с костями / Bag Of Bones (2011) HDRip от Scarabey | P
  • Мешок с костями / Bag Of Bones (2011) WEB-DLRip | A
  • Мешок с костями / Stephen King: Bag of bones (2011)
  • Мешок с мукой / Le sac de farine (2012) DVB | Sub
  • Следствие вели... с Леонидом Каневским (Золотой мешок) / 2015 / РУ / HDTVRip


    • Комментарии (0):

      Информация

      Информация

        Посетители, находящиеся в группе Гости, не могут оставлять комментарии в данной новости.

        ↓ Меню



        ↓ Опрос

        А Вы добавили сайт в закладки?
        Да
        Не


        Top 10 за месяц (Фильмы)