.
Авторизация | Регистрация
Хочешь лучшие торренты? Добавь свой email!
Добавить
» » 47 ронинов / 47 Ronin (2013) HDRip | D | iPad | Чистый звук скачать торрент бесплатно




    47 ронинов / 47 Ronin (2013) HDRip | D | iPad | Чистый звук скачать торрент бесплатно

    Опубликовал: Админ | Дата: 27-02-2015, 11:10 | Просмотров: 183

    Детально о кино
    Русское название: 47 ронинов / 47 Ronin
    Создали в: 2013
    Категория жанра: Фэнтези, Боевик, Приключения
    Главный режиссер: Карл Ринш
    Актеры: Киану Ривз, Хироюки Санада, Ко Шибасаки, Таданобу Асано, Мин Танака, Джин Аканиши, Масаёси Ханеда, Хироси Согабэ, Такато Йонемото, Хироси Ямада


    Сюжет:
    Таинственный странник, преданный всеми, проданный в рабство, избранный судьбой вершить месть, станет одним из 47 воинов, бросивших вызов смерти. Явившись из другого мира, он восстанет против темных сил, чтобы защитить свою запретную любовь.











    Тех. данные


    Время просмотра: 01:58:43
    Снималось в: США / H2F Entertainment, Mid Atlantic Films, Moving Picture Company (MPC)
    Перевод текста: Профессиональный (дублированный)


    Файл
    Тип видео: M4V
    Качество фильма: HDRip
    Информация о видео: H.264, 1024x432, 2.40:1, 2 200 Kbps, 23.976 fps
    Информация о звуке: Аудио 1: Русский/Профессиональный (дублированный) (Line), AAC / 2.0 / 104 Kbps / 48.0 KHz, Аудио 2: Английский/Оригинальная дорожка , AAC / 2.0 / 132 Kbps / 48.0 KHz
    iTunes Meta Tags, x264 лог и MI:

    Media Type: Movie
    Sort Name: 47 Ronin
    XID: Apple:vendor_id:2013-461314
    Content ID: 773254054
    Copyright: © 2013 Universal Studios. All Rights Reserved.
    ScreenWriters: Крис Морган, Хуссейн Амини, Уолтер Хамада
    Producers: Памела Эбди, Эрик МакЛеод, Крис Фентон
    Director: Карл Ринш
    Cast: Киану Ривз, Хироюки Санада, Ко Шибасаки, Таданобу Асано, Мин Танака, Джин Аканиши, Масаёси Ханеда, Хироси Согабэ, Такато Йонемото, Хироси Ямада
    Rating: PG-13
    Long Deion: Таинственный странник, преданный всеми, проданный в рабство, избранный судьбой вершить месть, станет одним из 47 воинов, бросивших вызов смерти. Явившись из другого мира, он восстанет против темных сил, чтобы защитить свою запретную любовь.
    Deion: Таинственный странник, преданный всеми, проданный в рабство, избранный судьбой вершить месть, станет одним из 47 воинов, бросивших вызов смерти.
    Release Date: 2013-12-06T08:00:00Z
    Genre: Action Adventure
    Artist: Carl Rinsch
    Name: 47 Ronin

    x264 info: frame I:1759 Avg QP:13.32 size: 95030 PSNR Mean Y:49.19 U:51.51 V:51.53 Avg:49.79 Global:49.44
    x264 info: frame P:44441 Avg QP:15.92 size: 23076 PSNR Mean Y:47.14 U:50.47 V:50.44 Avg:47.94 Global:47.40
    x264 info: frame B:124583 Avg QP:18.87 size: 6141 PSNR Mean Y:46.06 U:50.21 V:50.25 Avg:46.97 Global:46.41
    x264 info: consecutive B-frames: 3.9% 4.6% 10.3% 42.6% 11.7% 23.5% 3.3%
    x264 info: mb I I16..4: 6.7% 67.2% 26.1%
    x264 info: mb P I16..4: 1.6% 10.3% 2.6% P16..4: 35.4% 25.8% 15.9% 0.0% 0.0% skip: 8.2%
    x264 info: mb B I16..4: 0.1% 1.1% 0.4% B16..8: 38.8% 10.7% 3.0% direct: 4.8% skip:41.1% L0:42.8% L1:46.0% BI:11.2%
    x264 info: 8x8 transform intra:69.5% inter:66.6%
    x264 info: coded y,uvDC,uvAC intra: 86.9% 84.6% 58.7% inter: 27.0% 23.5% 3.9%
    x264 info: i16 v,h,dc,p: 21% 13% 11% 56%
    x264 info: i8 v,h,dc,ddl,ddr,vr,hd,vl,hu: 10% 8% 4% 10% 14% 14% 14% 13% 13%
    x264 info: i4 v,h,dc,ddl,ddr,vr,hd,vl,hu: 9% 7% 3% 9% 16% 15% 15% 12% 14%
    x264 info: i8c dc,h,v,p: 42% 23% 18% 17%
    x264 info: Weighted P-Frames: Y:5.6% UV:1.9%
    x264 info: ref P L0: 52.3% 11.7% 14.4% 7.1% 4.6% 3.2% 2.5% 2.2% 1.7% 0.3% 0.0%
    x264 info: ref B L0: 75.4% 10.9% 5.1% 3.5% 2.3% 1.4% 0.8% 0.5%
    x264 info: ref B L1: 92.5% 7.5%
    x264 info: SSIM Mean Y:0.9877257 (19.110db)
    x264 info: PSNR Mean Y:46.372 U:50.296 V:50.314 Avg:47.247 Global:46.669 kb/s:2198.73

    General
    Complete name : C:Handbrake47 Ronin (SD) (pk).m4v
    Format : MPEG-4
    Codec ID : M4V
    File size : 2.03 GiB
    Duration : 1h 58mn
    Overall bit rate mode : Variable
    Overall bit rate : 2 450 Kbps
    Movie name : 47 Ronin
    Performer : Carl Rinsch
    Genre : Action Adventure
    ContentType : Short Film
    Deion : Таинственный странник, преданный всеми, проданный в рабство, избранный судьбой вершить месть, станет одним из 47 воинов, бросивших вызов смерти.
    Recorded date : UTC 2013-12-06 08:00:00
    Encoded date : UTC 2014-03-21 07:54:47
    Tagged date : UTC 2014-03-21 07:56:01
    Writing application : MkvToMp4 version: 0.224 (x64)
    Copyright : © 2013 Universal Studios. All Rights Reserved.
    Service name : AOL
    Cover : Yes
    Title/Sort : 47 Ronin
    LongDeion : Таинственный странник, преданный всеми, проданный в рабство, избранный судьбой вершить месть, станет одним из 47 воинов, бросивших вызов смерти. Явившись из другого мира, он восстанет против темных сил, чтобы защитить свою запретную любовь.
    AppleStoreAccountType : AOL
    AppleStoreCountry : Unknown Country
    AppleStoreCatalogID : 773254054
    Vendor : Apple:vendor_id:2013-461314
    ContentRating : mpaa|PG-13|300|

    Video
    ID : 1
    Format : AVC
    Format/Info : Advanced Video Codec
    Format profile : High@L3.1
    Format settings, CABAC : Yes
    Format settings, ReFrames : 9 frames
    Codec ID : avc1
    Codec ID/Info : Advanced Video Coding
    Duration : 1h 58mn
    Bit rate : 2 200 Kbps
    Maximum bit rate : 12.9 Mbps
    Width : 1 024 pixels
    Height : 432 pixels
    Display aspect ratio : 2.40:1
    Frame rate mode : Variable
    Frame rate : 23.976 fps
    Minimum frame rate : 23.256 fps
    Maximum frame rate : 25.000 fps
    Color space : YUV
    Chroma subsampling : 4:2:0
    Bit depth : 8 bits
    Scan type : Progressive
    Bits/(Pixel*Frame) : 0.207
    Stream size : 1.82 GiB (90%)
    Writing library : x264 core 130 r2273 b3065e6
    Encoding settings : cabac=1 / ref=9 / deblock=1:0:0 / analyse=0x3:0x113 / me=umh / subme=9 / psy=1 / psy_rd=1.00:0.00 / mixed_ref=1 / me_range=32 / chroma_me=1 / trellis=1 / 8x8dct=1 / cqm=0 / deadzone=21,11 / fast_pskip=1 / chroma_qp_offset=-2 / threads=12 / lookahead_threads=1 / sliced_threads=0 / nr=0 / decimate=1 / interlaced=0 / bluray_compat=0 / constrained_intra=0 / bframes=6 / b_pyramid=2 / b_adapt=2 / b_bias=0 / direct=1 / weightb=1 / open_gop=0 / weightp=2 / keyint=240 / keyint_min=24 / scenecut=40 / intra_refresh=0 / rc_lookahead=40 / rc=2pass / mbtree=1 / bitrate=2200 / ratetol=1.0 / qcomp=0.60 / qpmin=0 / qpmax=69 / qpstep=4 / cplxblur=20.0 / qblur=0.5 / ip_ratio=1.40 / aq=1:1.00
    Language : English
    Encoded date : UTC 2014-03-21 07:54:47
    Tagged date : UTC 2014-03-21 07:55:33
    Color primaries : BT.709
    Transfer characteristics : BT.709
    Matrix coefficients : BT.709

    Audio #1
    ID : 2
    Format : AAC
    Format/Info : Advanced Audio Codec
    Format profile : LC
    Codec ID : 40
    Duration : 1h 58mn
    Bit rate mode : Variable
    Bit rate : 104 Kbps
    Maximum bit rate : 127 Kbps
    Channel(s) : 2 channels
    Channel positions : Front: L R
    Sampling rate : 48.0 KHz
    Compression mode : Lossy
    Stream size : 88.3 MiB (4%)
    Language : Russian
    Encoded date : UTC 2014-03-21 07:45:48
    Tagged date : UTC 2014-03-21 07:55:33

    Audio #2
    ID : 3
    Format : AAC
    Format/Info : Advanced Audio Codec
    Format profile : LC
    Codec ID : 40
    Duration : 1h 58mn
    Bit rate mode : Variable
    Bit rate : 132 Kbps
    Maximum bit rate : 181 Kbps
    Channel(s) : 2 channels
    Channel positions : Front: L R
    Sampling rate : 48.0 KHz
    Compression mode : Lossy
    Stream size : 114 MiB (5%)
    Language : English
    Encoded date : UTC 2014-03-21 07:49:51
    Tagged date : UTC 2014-03-21 07:55:33

    Menu
    ID : 4
    Codec ID : text
    Duration : 1h 58mn
    Encoded date : UTC 2014-03-21 07:55:55
    Tagged date : UTC 2014-03-21 07:55:56
    Bit rate mode : VBR
    Скриншоты для ознакомления



    Размер скачиваемого торрента: 2.03 GB (2181544133 Bytes)

    47 ронинов / 47 Ronin (2013) HDRip | D | iPad | Чистый звук торрент скачать бесплатно
    загрузка...
    Рейтинг →
     (голосов: 1, оценка 4/5, голосовать можно 1 раз )

    Другие торренты по теме:

  • 47 ронинов / 47 Ronin (2013) HD 720p | L1 | Трейлер
  • OST - 47 Ронинов / 47 Ronin (2013) MP3 скачать через торрент бесплатно
  • 47 ронинов / 47 Ronin (2013) CAMRip
  • 47 ронинов / 47 Ronin (2013) TS скачать через торрент бесплатно
  • 47 ронинов / 47 Ronin (2013) TS *PROPER* скачать через торрент бесплатно
  • 47 ронинов / 47 Ronin (2013) WEBRip | Звук с TS скачать через торрент бесплатно
  • 47 ронинов / 47 Ronin (2013) WEBRip-AVC | Звук с TS *PROPER* скачать через торрент бесплатно
  • 47 ронинов / 47 Ronin (2013) DVDScr | Звук с TS


    • Комментарии (0):

      Информация

      Информация

        Посетители, находящиеся в группе Гости, не могут оставлять комментарии в данной новости.

        ↓ Меню



        ↓ Опрос

        А Вы добавили сайт в закладки?
        Да
        Не


        Top 10 за месяц (Фильмы)