.
Авторизация | Регистрация
Хочешь лучшие торренты? Добавь свой email!
Добавить
» » Партия для чемпионки (2013) DVDRip от New-Team | лицензия скачать через торрент бесплатно




    Партия для чемпионки (2013) DVDRip от New-Team | лицензия скачать через торрент бесплатно

    Опубликовал: Админ | Дата: 27-02-2015, 11:10 | Просмотров: 226



    Снималось в: Россия / Про100 Фильм

    Категория жанра: мелодрама
    Создали в: 2013
    Время просмотра: 01:25:10 01:26:20 (2 серии)

    Перевод текста: Не требуется
    Субтитры подготовлены: нет
    Оригинальная аудиодорожка: русский

    Главный режиссер: Роман Барабаш

    Актеры: Ольга Зайцева, Евгений Воловенко, Джемал Тетруашвили, Сергей Загребнев, Алёна Яковлева, Владимир Носик, Татьяна Лянник, Олег Марусев, Нина Лощинина

    Сюжет: Елене — 39, она специалист по рекламе, успешна, умна, прекрасно выглядит, ее карьера идет в гору, почти любые задачи по плечу! Мужчин вокруг крутилось всегда огромное количество. Но Лена — девушка серьезная и настроена больше на карьеру, нежели на личную жизнь. А мимолетные романы давно перестали радовать…
    Словом, нет рядом мужчины, да и не очень нужно. Увлекательная работа полностью вытеснила личную жизнь. Гром среди ясного неба звучит в тот момент, когда врачи обнаружили застарелую болезнь по женской части. А ведь Елене еще чуть-чуть и - 40 лет! Вердикт категоричен: нужно срочно беременеть и рожать! В самые кратчайшие сроки!



    Качество фильма: DVDRip / DVD9 R5
    Тип видео: AVI

    Информация о видео: 720x400 (16:9), 25.000 fps, XviD ~ 1624 kbps avg, 0.226 bit/pixel
    Информация о звуке: 48 kHz, Dolby AC3, 2 ch, 192 kbps, русский

    Раздача от:
    MediaInfo

    Общее
    Полное имя : Partiya.dlya.chempionki.2013.O.DVDRip_New-Team_by_avproh1.avi
    Формат : AVI
    Формат/Информация : Audio Video Interleave
    Размер файла : 1,09 Гбайт
    Продолжительность : 1 ч. 25 м.
    Общий поток : 1826 Кбит/сек
    Программа кодирования : VirtualDubMod 1.5.10.3 | www.virtualdub-fr.org || (build 2550/release)
    Библиотека кодирования : VirtualDubMod build 2550/release

    Видео
    Идентификатор : 0
    Формат : MPEG-4 Visual
    Профиль формата : Advanced Simple@L5
    Параметр BVOP формата : 1
    Параметр QPel формата : Нет
    Параметр GMC формата : Без точки перехода
    Параметр матрицы формата : Выборочная
    Идентификатор кодека : XVID
    Идентификатор кодека/Подсказка : XviD
    Продолжительность : 1 ч. 25 м.
    Битрейт : 1624 Кбит/сек
    Ширина : 720 пикселей
    Высота : 400 пикселей
    Соотношение сторон : 16:9
    Частота кадров : 25,000 кадров/сек
    Цветовое пространство : YUV
    Субдискретизация насыщенности : 4:2:0
    Битовая глубина : 8 бит
    Тип развёртки : Прогрессивная
    Метод сжатия : С потерями
    Бит/(Пиксели*Кадры) : 0.226
    Размер потока : 989 Мбайт (89%)
    Библиотека кодирования : XviD 73

    Аудио
    Идентификатор : 1
    Формат : AC-3
    Формат/Информация : Audio Coding 3
    Расширение режима : CM (complete main)
    Параметр Endianness формата : Big
    Идентификатор кодека : 2000
    Продолжительность : 1 ч. 25 м.
    Вид битрейта : Постоянный
    Битрейт : 192 Кбит/сек
    Каналы : 2 канала
    Расположение каналов : Front: L R
    Частота : 48,0 КГц
    Битовая глубина : 16 бит
    Метод сжатия : С потерями
    Размер потока : 117 Мбайт (11%)
    Выравнивание : Разделение по промежуткам
    Продолжительность промежутка : 40 мс. (1,00 видеокадр)
    Время предзагрузки промежутка : 500 мс.

    Скриншоты для ознакомления:



    Сравнение:

    http://alt.rutor.org/torrent/325878/

    Видео SATRip - http://screenshotcomparison.com/comparison/67528
    Аудио SATRip - http://screenshotcomparison.com/comparison/67529

    http://alt.rutor.org/torrent/344294/

    Видео WEBDLRip - http://screenshotcomparison.com/comparison/67530
    Аудио WEBDLRip - http://screenshotcomparison.com/comparison/67534

    Залил: avproh
    Размер скачиваемого торрента: 2.19 GB (2348771328 Bytes)

    Партия для чемпионки (2013) DVDRip от New-Team | лицензия скачать через торрент бесплатно
    загрузка...
    Рейтинг →
     (голосов: 1, оценка 3/5, голосовать можно 1 раз )

    Другие торренты по теме:

  • Партия для чемпионки / Сорокалетняя мамаша (2013) SATRip скачать через торрент бесплатно
  • Партия для чемпионки (Сорокалетняя мамаша) (2013) WEB-DL 1080p от MediaClub
  • Партия для чемпионки (2013) DVD9 R5 от New-Team | лицензия скачать через торрент бесплатно
  • Партия для чемпионки (2013) DVDRip-AVC от New-Team | лицензия скачать через торрент бесплатно
  • Партия для чемпионки (Сорокалетняя мамаша) (2013) WEB-DLRip от MediaClub скачать через торрент бесплатно
  • Партия для чемпионки / Сорокалетняя мамаша (2013) HDTV 1080i от MediaClub


    • Комментарии (0):

      Информация

      Информация

        Посетители, находящиеся в группе Гости, не могут оставлять комментарии в данной новости.

        ↓ Меню



        ↓ Опрос

        А Вы добавили сайт в закладки?
        Да
        Не


        Top 10 за месяц (Фильмы)