.
Авторизация | Регистрация
Хочешь лучшие торренты? Добавь свой email!
Добавить
» » Растущая Надежда / Воспитывая Хоуп / Raising Hope (2013-2014) WEB-DLRip | NewStudio скачать через торрент бесплатно




    Растущая Надежда / Воспитывая Хоуп / Raising Hope (2013-2014) WEB-DLRip | NewStudio скачать через торрент бесплатно

    Опубликовал: Админ | Дата: 27-02-2015, 11:10 | Просмотров: 260



    Детально о кино
    Русское название: Растущая Надежда / Воспитывая Хоуп
    Русское название в мировом прокате: Raising Hope
    Создали в: 2013-2014
    Категория жанра: Драма, комедия
    Главный режиссер: Грег Гарсиа
    Актеры: Лукас Нефф, Клорис Личмен, Марта Плимптон, Гаррет Диллахант, Скайлер Стоун, Бижу Филлипс, Шеннон Мари Вудворд, Грегг Бинкли, Тодд Гибенхейн, Кейт Микуччи, Келли Хайер, Трейс Гарсиа, Карла Хименез, Райан Дум, Жермен Уильямс, Рэй Сантьяго, Итэн Сапли, Дж. Ламонт Поуп, Лу Вагнер, Эдди Стиплз, Тичина Арнольд, Грейсон Ченс, Джош Вульф, Карен МакКлейн, Прамод Кумар, Джейсон Ли, Джонатан Кайт, Эми Седарис, Стив Эдвардс, Фил Льюис, Ларри Кларк, Джейми Прессли, Дэвид Крамхолц, Грег Джерманн, Мэйсон Кук

    Сюжет фильма:
    Семейству Чансов пришлось внезапно принять нового родственника в дом, в котором и без того царит разлад. Джимми Ченс в свои 23 ни к чему не стремится. Чтобы заработать на жизнь, он чистит бассейны, каждый день ходит на вечеринки и до сих пор живет дома с семьей, состоящей из Мо Мо; его матери Вирджинии; его отца Берта и его кузена Майка. Но жизнь Джимми принимает неожиданный поворот, когда после случайной ночи с Люси он обнаруживает, что Люси – осужденная преступница. Через несколько месяцев он решает навестить ее в тюрьме, и обнаруживает, что Люси родила от него ребенка, которого теперь придется растить Джимми. Семья Джимми вовсе не рада его дочке. Его родители родили его, когда им обоим было по 15, и тогда они не знали, как воспитывать детей, и не хотят узнавать об этом сейчас. Возможно, Джимми могла бы помочь Сабрина, язвительная работница супермаркета, но для этого Джимми прежде надо набраться смелости и пригласить ее на свидание... Но Джимми твердо намерен вырастить дочь, которую Вирджиния предложила назвать Хоуп (надежда). У них нет никаких навыков, но есть большие сердца. Сможет ли семья Ченсов выдержать тяготы непредсказуемого мира воспитания?
    Содержание
    01. D?j? Vu Man
    02. Burt Bucks
    03. Ship Happens
    04. Hi-Def
    05. Extreme Howdy;s Makeover
    06. Adoption
    07. Murder, She Hoped
    08. Dysfunction Function
    09. The Chance Who Stole Christmas
    10. Bee Story
    11. Hey There, Delilah
    12. Hot Dish
    13. Thrilla in Natesvilla
    14. Road to Natesville
    15. Anniversary Ball
    16. The One Where They Get High
    17. Baby Phat

    MI
    Общее
    Полное имя : raising.hope.s04raising.hope.s04e17.webdl_NewStudio.TV.avi
    Формат : AVI
    Формат/Информация : Audio Video Interleave
    Размер файла : 249 Мбайт
    Продолжительность : 22 м.
    Общий поток : 1570 Кбит/сек
    Программа кодирования : VirtualDubMod 1.5.10.2 (build 2540/release)
    Библиотека кодирования : VirtualDubMod build 2540/release

    Видео
    Идентификатор : 0
    Формат : MPEG-4 Visual
    Профиль формата : Advanced Simple@L5
    Параметр BVOP формата : Нет
    Параметр QPel формата : Нет
    Параметр GMC формата : Без точки перехода
    Параметр матрицы формата : Default (H.263)
    Идентификатор кодека : XVID
    Идентификатор кодека/Подсказка : XviD
    Продолжительность : 22 м.
    Битрейт : 1300 Кбит/сек
    Ширина : 720 пикселей
    Высота : 400 пикселей
    Соотношение сторон : 16:9
    Частота кадров : 23,976 кадра/сек
    Цветовое пространство : YUV
    Субдискретизация насыщенности : 4:2:0
    Битовая глубина : 8 бит
    Тип развёртки : Прогрессивная
    Метод сжатия : С потерями
    Бит/(Пиксели*Кадры) : 0.188
    Размер потока : 207 Мбайт (83%)
    Библиотека кодирования : XviD 1.2.1 (UTC 2008-12-04)

    Аудио #1
    Идентификатор : 1
    Формат : MPEG Audio
    Версия формата : Version 1
    Профиль формата : Layer 3
    Режим : Joint stereo
    Расширение режима : MS Stereo
    Идентификатор кодека : 55
    Идентификатор кодека/Подсказка : MP3
    Продолжительность : 22 м.
    Вид битрейта : Постоянный
    Битрейт : 128 Кбит/сек
    Каналы : 2 канала
    Частота : 48,0 КГц
    Метод сжатия : С потерями
    Размер потока : 20,3 Мбайт (8%)
    Выравнивание : Соединение по промежуткам
    Продолжительность промежутка : 42 мс. (1,00 видеокадр)
    Время предзагрузки промежутка : 504 мс.

    Аудио #2
    Идентификатор : 2
    Формат : MPEG Audio
    Версия формата : Version 1
    Профиль формата : Layer 3
    Режим : Joint stereo
    Расширение режима : MS Stereo
    Идентификатор кодека : 55
    Идентификатор кодека/Подсказка : MP3
    Продолжительность : 22 м.
    Вид битрейта : Постоянный
    Битрейт : 128 Кбит/сек
    Каналы : 2 канала
    Частота : 48,0 КГц
    Метод сжатия : С потерями
    Размер потока : 20,3 Мбайт (8%)
    Выравнивание : Соединение по промежуткам
    Продолжительность промежутка : 42 мс. (1,00 видеокадр)
    Время предзагрузки промежутка : 504 мс.




    Снималось в: США
    Время просмотра: ~ 00:23:00
    Перевод текста: Профессиональный (двухголосый закадровый) NewStudio

    Озвучка: Илья Демьянов, Татьяна Манетина
    Перевод: Анна Тимонькина

    Файл
    Кодек для видео: XviD
    Качество фильма: WEB-DLRip
    Информация о видео: 720x400, 16:9, 23.976 fps, 1300 kbps, 0.188 bit/pixel
    Информация о звуке:
    Аудио RUS: MP3, 48 kHz, 2 ch, 128 kbps
    Аудио ENG: MP3, 48 kHz, 2 ch, 128 kbps

    Скриншоты для ознакомления


    Релиз подготовил:
    Размер скачиваемого торрента: 4.39 GB (4709615616 Bytes)

    Растущая Надежда / Воспитывая Хоуп / Raising Hope (2013-2014) WEB-DLRip | NewStudio скачать через торрент бесплатно
    загрузка...
    Рейтинг →
     (голосов: 1, оценка 3/5, голосовать можно 1 раз )

    Другие торренты по теме:

  • Воспитывая Хоуп / Растущая Надежда / Raising Hope (2012-2013) WEB-DLRip | NewStudio


    • Комментарии (0):

      Информация

      Информация

        Посетители, находящиеся в группе Гости, не могут оставлять комментарии в данной новости.

        ↓ Меню



        ↓ Опрос

        А Вы добавили сайт в закладки?
        Да
        Не


        Top 10 за месяц (Фильмы)