.
Авторизация | Регистрация
Хочешь лучшие торренты? Добавь свой email!
Добавить
» » Поспешное бегство 1, 2 / Fast Getaway 1, 2 (1991- 1994) DVDRip от NovaLan | P, A скачать через торрент бесплатно




    Поспешное бегство 1, 2 / Fast Getaway 1, 2 (1991- 1994) DVDRip от NovaLan | P, A скачать через торрент бесплатно

    Опубликовал: Админ | Дата: 27-02-2015, 11:10 | Просмотров: 373




    Снималось в: США
    Создали в: Cinetel Films, Live Entertainment
    Категория жанра: Боевик, приключения
    Создали в: 1991- 1994

    Время просмотра: 2 х ~ 01:26:00


    Перевод текста: Профессиональный многоголосый, авторский

    Оригинальная аудиодорожка: Английская

    Главный режиссер: Спиро Разатос, Олей Сэссон


    Актеры: Кори Хэйм, Синтия Ротрок, Лео Росси, Кен Лернер, Марша Стрэссмен, Шелли Лезер, Табита Томпсон, Джек Норт, Ким Пич, Джефф Олсон, Сара Бакстон, Филлип Коннери, Стэнтон Дэвис, Мэгги Грант, Тиффани Грант, Кенни Джейкобс, Дэвид Александер Джонстон


    Сюжет: После распада банды грабителей, молодой гангстер Нельсон вместе с отцом отправляются колесить по Америке, вполне успешно продолжая бомбить банки и почтовые отделения. А у остальных членов бывшей банды дела идут на спад, так как Нельсон, несмотря на юный возраст, был их мозговым центром. И тогда раздосадованная гангстерша Лили и её сообщники принимают решение похитить Нельсона и силой заставить его работать на них.



    Исходник: DVD5 R2

    Тип релиза: DVDRip

    Контейнер: AVI


    Информация о видео: XviD, ~ 1723 Кбит/с, 640x480
    Информация о звуке: Русский, английский (АС3, 2 ch, 192 Кбит/с

    Семпл 1
    Семпл 2

    Перевод

    Фильм 1.
    Аудио#1: Профессиональный многоголосый
    Аудио#2: Авторский (Гаврилов)
    Аудио#3: Английский

    Фильм 2.
    Аудио#1: Авторский (Иванов)
    Аудио#2: Авторский (Визгунов)
    Аудио#3: Английский


    MediaInfo
    Общее
    Полное имя : D:1АААПОСПЕШНОЕ БЕГСТВО 1-2Поспешное бегство.avi
    Формат : AVI
    Формат/Информация : Audio Video Interleave
    Размер файла : 1,38 Гбайт
    Продолжительность : 1 ч. 22 м.
    Общий поток : 2398 Кбит/сек
    Программа кодирования : VirtualDubMod 1.5.10.2 (build 2540/release)
    Библиотека кодирования : VirtualDubMod build 2540/release

    Видео
    Идентификатор : 0
    Формат : MPEG-4 Visual
    Профиль формата : Advanced Simple@L5
    Параметр BVOP формата : 2
    Параметр QPel формата : Нет
    Параметр GMC формата : Без точки перехода
    Параметр матрицы формата : Default (MPEG)
    Идентификатор кодека : XVID
    Идентификатор кодека/Подсказка : XviD
    Продолжительность : 1 ч. 22 м.
    Битрейт : 1803 Кбит/сек
    Ширина : 640 пикселей
    Высота : 480 пикселей
    Соотношение сторон : 4:3
    Частота кадров : 23,976 кадра/сек
    Цветовое пространство : YUV
    Субдискретизация насыщенности : 4:2:0
    Битовая глубина : 8 бит
    Тип развёртки : Прогрессивная
    Метод сжатия : С потерями
    Бит/(Пиксели*Кадры) : 0.245
    Размер потока : 1,03 Гбайт (75%)
    Библиотека кодирования : XviD 1.2.1 (UTC 2008-12-04)

    Аудио #1
    Идентификатор : 1
    Формат : AC-3
    Формат/Информация : Audio Coding 3
    Расширение режима : CM (complete main)
    Параметр Endianness формата : Big
    Идентификатор кодека : 2000
    Продолжительность : 1 ч. 22 м.
    Вид битрейта : Постоянный
    Битрейт : 192 Кбит/сек
    Каналы : 2 канала
    Расположение каналов : Front: L R
    Частота : 48,0 КГц
    Битовая глубина : 16 бит
    Метод сжатия : С потерями
    Размер потока : 113 Мбайт (8%)
    Выравнивание : Разделение по промежуткам
    Продолжительность промежутка : 42 мс. (1,00 видеокадр)
    Время предзагрузки промежутка : 500 мс.

    Аудио #2
    Идентификатор : 2
    Формат : AC-3
    Формат/Информация : Audio Coding 3
    Расширение режима : CM (complete main)
    Параметр Endianness формата : Big
    Идентификатор кодека : 2000
    Продолжительность : 1 ч. 22 м.
    Вид битрейта : Постоянный
    Битрейт : 192 Кбит/сек
    Каналы : 2 канала
    Расположение каналов : Front: L R
    Частота : 48,0 КГц
    Битовая глубина : 16 бит
    Метод сжатия : С потерями
    Размер потока : 113 Мбайт (8%)
    Выравнивание : Разделение по промежуткам
    Продолжительность промежутка : 42 мс. (1,00 видеокадр)
    Время предзагрузки промежутка : 500 мс.

    Аудио #3
    Идентификатор : 3
    Формат : AC-3
    Формат/Информация : Audio Coding 3
    Профиль формата : Dolby Digital
    Расширение режима : CM (complete main)
    Параметр Endianness формата : Big
    Идентификатор кодека : 2000
    Продолжительность : 1 ч. 22 м.
    Вид битрейта : Постоянный
    Битрейт : 192 Кбит/сек
    Каналы : 2 канала
    Расположение каналов : Front: L R
    Частота : 48,0 КГц
    Битовая глубина : 16 бит
    Метод сжатия : С потерями
    Размер потока : 113 Мбайт (8%)
    Выравнивание : Разделение по промежуткам
    Продолжительность промежутка : 42 мс. (1,00 видеокадр)
    Время предзагрузки промежутка : 500 мс.





    Скриншоты для ознакомления




    Релиз группа:

    Автор рипа:
    Залил: YArl
    Размер скачиваемого торрента: 2.84 GB (3047667712 Bytes)

    Поспешное бегство 1, 2 / Fast Getaway 1, 2 (1991- 1994) DVDRip от NovaLan | P, A скачать через торрент бесплатно
    загрузка...
    Рейтинг →
     (голосов: 1, оценка 4/5, голосовать можно 1 раз )

    Другие торренты по теме:

  • Поспешное бегство 2 / Fast Getaway II (1994) DVDRip


    • Комментарии (0):

      Информация

      Информация

        Посетители, находящиеся в группе Гости, не могут оставлять комментарии в данной новости.

        ↓ Меню



        ↓ Опрос

        А Вы добавили сайт в закладки?
        Да
        Не


        Top 10 за месяц (Фильмы)